Tags
Language
Tags

Kaunas City Symphony Orchestra, Kaunas State Choir & Constantine Orbelian - Bellini: I puritani (2021) [24/96]

Posted By: delpotro
Kaunas City Symphony Orchestra, Kaunas State Choir & Constantine Orbelian - Bellini: I puritani (2021) [24/96]

Lawrence Brownlee, Sarah Coburn, Azamat Zheltyrguzov, Tadas Girininkas, Kaunas City Symphony Orchestra, Kaunas State Choir & Constantine Orbelian - Bellini: I puritani (2021)
FLAC (tracks) 24-bit/96 kHz | Front Cover & Digital Booklet | Time - 162:01 minutes | 2,67 GB
Classical, Opera | Label: Delos Music, Official Digital Download

This stellar production features a pair of operatic superstars, namely GRAMMY®-nominated tenor Lawrence Brownlee and soprano supreme Sarah Coburn, who continually appear in the lead roles in top houses worldwide. The remaining characters are beautifully portrayed by distinguished singers from Lithuania and Kazakhstan. Providing brilliant and sensitive choral-orchestral support is the GRAMMY®-nominated Maestro Constantine Orbelian (“the singer’s dream collaborator”) leading the Kaunas City Symphony Orchestra and the Kaunas State Choir. In June 2021, Orbelian was named Music Director and Principal Conductor of New York City Opera.

Bellini’s I Puritani is considered by many to offer the most beautiful music among some of his best-known operas, several of which are sublime masterpieces of the spectacular bel canto style of singing.

Tracklist:
Disc 1 (36:58)
1. Kaunas City Symphony Orchestra & Constantine Orbelian – I puritani, Act I: Sinfonia (03:02)
2. Kaunas State Choir, Kaunas City Symphony Orchestra & Constantine Orbelian – I puritani, Act I: All'erta! All'erta! (05:03)
3. Sarah Coburn, Lawrence Brownlee, Tomas Pavilionis, Azamat Zheltyrguzov, Tadas Girininkas, Kaunas State Choir, Kaunas City Symphony Orchestra & Constantine Orbelian – I puritani, Act I: O di Cromvel guerrieri (03:13)
4. Kaunas State Choir, Kaunas City Symphony Orchestra & Constantine Orbelian – I puritani, Act I: A festa! (02:40)
5. Azamat Zheltyrguzov, Tomas Pavilionis, Kaunas City Symphony Orchestra & Constantine Orbelian – I puritani, Act I: Or dove fuggo io mai (02:44)
6. Azamat Zheltyrguzov, Kaunas City Symphony Orchestra & Constantine Orbelian – I puritani, Act I: Ah! Per sempre io ti perdei (03:12)
7. Tomas Pavilionis, Azamat Zheltyrguzov, Kaunas City Symphony Orchestra & Constantine Orbelian – I puritani, Act I: T'appellan le schiere (04:17)
8. Sarah Coburn, Tadas Girininkas, Kaunas City Symphony Orchestra & Constantine Orbelian – I puritani, Act I: O amato zio (02:12)
9. Sarah Coburn, Tadas Girininkas, Kaunas City Symphony Orchestra & Constantine Orbelian – I puritani, Act I: Sai com'arde in petto mio (06:48)
10. Sarah Coburn, Tadas Girininkas, Kaunas State Choir, Kaunas City Symphony Orchestra & Constantine Orbelian – I puritani, Act I: Odi… Qual suon si desta? (03:47)

Disc 2 (55:20)
1. Kaunas State Choir, Kaunas City Symphony Orchestra & Constantine Orbelian – I puritani, Act I: Ad Arturo onore (03:10)
2. Lawrence Brownlee, Tadas Girininkas, Liudas Norvaišas, Sarah Coburn, Kaunas State Choir, Kaunas City Symphony Orchestra & Constantine Orbelian – I puritani, Act I: A te, o cara (05:48)
3. Lawrence Brownlee, Tadas Girininkas, Liudas Norvaišas, Jovita Vaškevičiūtė, Kaunas City Symphony Orchestra & Constantine Orbelian – I puritani, Act I: Il rito augusto si compia senza me (02:04)
4. Liudas Norvaišas, Jovita Vaškevičiūtė, Lawrence Brownlee, Kaunas City Symphony Orchestra & Constantine Orbelian – I puritani, Act I: Com'io, v'unisca (04:14)
5. Sarah Coburn, Jovita Vaškevičiūtė, Lawrence Brownlee, Liudas Norvaišas, Tadas Girininkas, Kaunas State Choir, Kaunas City Symphony Orchestra & Constantine Orbelian – I puritani, Act I: Son vergin vezzosa (04:17)
6. Lawrence Brownlee, Jovita Vaškevičiūtė, Kaunas City Symphony Orchestra & Constantine Orbelian – I puritani, Act I: Sulla verginea testa (00:45)
7. Azamat Zheltyrguzov, Lawrence Brownlee, Jovita Vaškevičiūtė, Kaunas State Choir, Kaunas City Symphony Orchestra & Constantine Orbelian – I puritani, Act I: Ferma! Invan rapir pretendi (05:25)
8. Azamat Zheltyrguzov, Liudas Norvaišas, Tomas Pavilionis, Sarah Coburn, Tadas Girininkas, Kaunas State Choir, Kaunas City Symphony Orchestra & Constantine Orbelian – I puritani, Act I: E già al ponte, passa il forte (04:17)
9. Sarah Coburn, Azamat Zheltyrguzov, Tadas Girininkas, Tomas Pavilionis, Kaunas State Choir, Kaunas City Symphony Orchestra & Constantine Orbelian – I puritani, Act I: O, vieni al tempio (05:09)
10. Sarah Coburn, Kaunas State Choir, Kaunas City Symphony Orchestra & Constantine Orbelian – I puritani, Act I: Ma tu già me fuggi? (03:48)
11. Kaunas State Choir, Kaunas City Symphony Orchestra & Constantine Orbelian – I puritani, Act II: Ah, dolor! Ah terror! (05:40)
12. Tadas Girininkas, Kaunas State Choir, Kaunas City Symphony Orchestra & Constantine Orbelian – I puritani, Act II: Qual novella? (01:49)
13. Tadas Girininkas, Kaunas State Choir, Kaunas City Symphony Orchestra & Constantine Orbelian – I puritani, Act II: Cinta di fiori e col ben crin disciolto (04:46)
14. Azamat Zheltyrguzov, Tadas Girininkas, Kaunas State Choir, Kaunas City Symphony Orchestra & Constantine Orbelian – I puritani, Act II: E di morte lo stral non sarà lento (04:08)

Disc 3 (01:09:19)
1. Tadas Girininkas, Azamat Zheltyrguzov, Sarah Coburn, Kaunas City Symphony Orchestra & Constantine Orbelian – I puritani, Act II: O rendetemi la speme (10:09)
2. Tadas Girininkas, Azamat Zheltyrguzov, Sarah Coburn, Kaunas City Symphony Orchestra & Constantine Orbelian – I puritani, Act II: Torno il riso sul suo aspetto (01:22)
3. Sarah Coburn, Tadas Girininkas, Azamat Zheltyrguzov, Kaunas City Symphony Orchestra & Constantine Orbelian – I puritani, Act II: Vien, diletto, e in ciel la luna! (05:19)
4. Azamat Zheltyrguzov, Tadas Girininkas, Kaunas City Symphony Orchestra & Constantine Orbelian – I puritani, Act II: Il rival salvar tu dei (04:21)
5. Azamat Zheltyrguzov, Tadas Girininkas, Kaunas City Symphony Orchestra & Constantine Orbelian – I puritani, Act II: Se tra il buio un fantasma vedrai (02:42)
6. Tadas Girininkas, Azamat Zheltyrguzov, Kaunas City Symphony Orchestra & Constantine Orbelian – I puritani, Act II: Riccardo! Riccardo! (01:48)
7. Tadas Girininkas, Azamat Zheltyrguzov, Kaunas City Symphony Orchestra & Constantine Orbelian – I puritani, Act II: Suoni la tromba e intrepido (03:19)
8. Lawrence Brownlee, Kaunas City Symphony Orchestra & Constantine Orbelian – I puritani, Act III: Son salvo alfin son salvo (04:29)
9. Sarah Coburn, Lawrence Brownlee, Kaunas City Symphony Orchestra & Constantine Orbelian – I puritani, Act III: A una fonte afflitto e solo (04:16)
10. Lawrence Brownlee, Kaunas State Choir, Kaunas City Symphony Orchestra & Constantine Orbelian – I puritani, Act III: Qual suon! Alcun s'appressa! (01:43)
11. Lawrence Brownlee, Kaunas City Symphony Orchestra & Constantine Orbelian – I puritani, Act III: Son già lontani (04:12)
12. Sarah Coburn, Lawrence Brownlee, Kaunas City Symphony Orchestra & Constantine Orbelian – I puritani, Act III: Finì! Me lassa! (03:19)
13. Sarah Coburn, Lawrence Brownlee, Kaunas City Symphony Orchestra & Constantine Orbelian – I puritani, Act III: Che provo lontan da me? (03:14)
14. Sarah Coburn, Lawrence Brownlee, Kaunas City Symphony Orchestra & Constantine Orbelian – I puritani, Act III: Vieni, vieni fra queste braccia (05:09)
15. Sarah Coburn, Lawrence Brownlee, Kaunas City Symphony Orchestra & Constantine Orbelian – I puritani, Act III: Ancor s'ascolta questa suon molesto (01:29)
16. Lawrence Brownlee, Sarah Coburn, Kaunas State Choir, Kaunas City Symphony Orchestra & Constantine Orbelian – I puritani, Act III: Alto la! (01:13)
17. Azamat Zheltyrguzov, Tadas Girininkas, Sarah Coburn, Kaunas State Choir, Kaunas City Symphony Orchestra & Constantine Orbelian – I puritani, Act III: Cavalier, ti colse il Dio (01:38)
18. Lawrence Brownlee, Sarah Coburn, Tadas Girininkas, Azamat Zheltyrguzov, Kaunas State Choir, Kaunas City Symphony Orchestra & Constantine Orbelian – I puritani, Act III: Credeasi, misera! (05:52)
19. Sarah Coburn, Lawrence Brownlee, Azamat Zheltyrguzov, Tadas Girininkas, Kaunas State Choir, Kaunas City Symphony Orchestra & Constantine Orbelian – I puritani, Act III: Suon d'araldi? (03:45)

foobar2000 1.4.1 / Dynamic Range Meter 1.1.1
log date: 2021-08-17 14:11:49

––––––––––––––––––––––––––––––––––––––––
Analyzed: Kaunas City Symphony Orchestra, Kaunas State Choir & Constantine Orbelian / Bellini: I puritani
––––––––––––––––––––––––––––––––––––––––

DR Peak RMS Duration Track
––––––––––––––––––––––––––––––––––––––––
DR16 -2.42 dB -24.51 dB 3:02 01-Bellini: I puritani, Act I: Sinfonia
DR12 -1.56 dB -18.34 dB 5:03 02-Bellini: I puritani, Act I: All'erta! All'erta!
DR12 -8.15 dB -24.26 dB 3:14 03-Bellini: I puritani, Act I: O di Cromvel guerrieri
DR14 -1.56 dB -21.36 dB 2:40 04-Bellini: I puritani, Act I: A festa!
DR15 -7.22 dB -28.59 dB 2:45 05-Bellini: I puritani, Act I: Or dove fuggo io mai
DR12 -9.76 dB -26.99 dB 3:12 06-Bellini: I puritani, Act I: Ah! Per sempre io ti perdei
DR12 -4.31 dB -21.39 dB 4:17 07-Bellini: I puritani, Act I: T'appellan le schiere
DR14 -2.71 dB -23.38 dB 2:13 08-Bellini: I puritani, Act I: O amato zio
DR14 -2.16 dB -21.69 dB 6:49 09-Bellini: I puritani, Act I: Sai com'arde in petto mio
DR12 -1.56 dB -17.40 dB 3:47 10-Bellini: I puritani, Act I: Odi… Qual suon si desta?
DR13 -1.56 dB -19.12 dB 3:11 11-Bellini: I puritani, Act I: Ad Arturo onore
DR13 -2.52 dB -21.25 dB 5:48 12-Bellini: I puritani, Act I: A te, o cara
DR14 -14.75 dB -31.78 dB 2:05 13-Bellini: I puritani, Act I: Il rito augusto si compia senza me
DR14 -5.38 dB -25.55 dB 4:14 14-Bellini: I puritani, Act I: Com'io, v'unisca
DR12 -2.71 dB -22.28 dB 4:17 15-Bellini: I puritani, Act I: Son vergin vezzosa
DR12 -14.13 dB -29.88 dB 0:46 16-Bellini: I puritani, Act I: Sulla verginea testa
DR15 -3.00 dB -24.74 dB 5:26 17-Bellini: I puritani, Act I: Ferma! Invan rapir pretendi
DR13 -1.56 dB -20.77 dB 4:18 18-Bellini: I puritani, Act I: E già al ponte, passa il forte
DR13 -4.03 dB -22.40 dB 5:10 19-Bellini: I puritani, Act I: O, vieni al tempio
DR12 -1.56 dB -17.58 dB 3:49 20-Bellini: I puritani, Act I: Ma tu già me fuggi?
DR13 -1.56 dB -20.17 dB 5:40 21-Bellini: I puritani, Act II: Ah, dolor! Ah terror!
DR13 -1.73 dB -22.83 dB 1:50 22-Bellini: I puritani, Act II: Qual novella?
DR16 -1.56 dB -22.64 dB 4:47 23-Bellini: I puritani, Act II: Cinta di fiori e col ben crin disciolto
DR15 -1.56 dB -22.02 dB 4:08 24-Bellini: I puritani, Act II: E di morte lo stral non sarà lento
DR15 -4.40 dB -24.61 dB 10:10 25-Bellini: I puritani, Act II: O rendetemi la speme
DR13 -2.59 dB -22.23 dB 1:22 26-Bellini: I puritani, Act II: Torno il riso sul suo aspetto
DR13 -1.56 dB -21.58 dB 5:20 27-Bellini: I puritani, Act II: Vien, diletto, e in ciel la luna!
DR13 -4.54 dB -26.47 dB 4:21 28-Bellini: I puritani, Act II: Il rival salvar tu dei
DR13 -9.22 dB -26.12 dB 2:43 29-Bellini: I puritani, Act II: Se tra il buio un fantasma vedrai
DR13 -5.43 dB -22.93 dB 1:49 30-Bellini: I puritani, Act II: Riccardo! Riccardo!
DR13 -3.37 dB -21.25 dB 3:20 31-Bellini: I puritani, Act II: Suoni la tromba e intrepido
DR13 -1.95 dB -21.73 dB 4:29 32-Bellini: I puritani, Act III: Son salvo alfin son salvo
DR11 -8.14 dB -28.30 dB 4:16 33-Bellini: I puritani, Act III: A una fonte afflitto e solo
DR13 -3.30 dB -22.07 dB 1:44 34-Bellini: I puritani, Act III: Qual suon! Alcun s'appressa!
DR12 -7.90 dB -26.25 dB 4:13 35-Bellini: I puritani, Act III: Son già lontani
DR14 -1.56 dB -21.71 dB 3:20 36-Bellini: I puritani, Act III: Finì! Me lassa!
DR12 -2.73 dB -20.80 dB 3:15 37-Bellini: I puritani, Act III: Che provo lontan da me?
DR13 -1.56 dB -19.58 dB 5:09 38-Bellini: I puritani, Act III: Vieni, vieni fra queste braccia
DR13 -2.80 dB -22.59 dB 1:29 39-Bellini: I puritani, Act III: Ancor s'ascolta questa suon molesto
DR11 -1.56 dB -16.87 dB 1:13 40-Bellini: I puritani, Act III: Alto la!
DR14 -0.30 dB -21.20 dB 1:39 41-Bellini: I puritani, Act III: Cavalier, ti colse il Dio
DR15 -1.56 dB -20.96 dB 5:52 42-Bellini: I puritani, Act III: Credeasi, misera!
DR11 -1.56 dB -16.85 dB 3:46 43-Bellini: I puritani, Act III: Suon d'araldi?
––––––––––––––––––––––––––––––––––––––––

Number of tracks: 43
Official DR value: DR13

Samplerate: 96000 Hz
Channels: 2
Bits per sample: 24
Bitrate: 2584 kbps
Codec: FLAC
================================================================================


Thanks to the Original customer!