Tags
Language
Tags

Kool & The Gang - Perfect Union (2021) [Official Digital Download]

Posted By: delpotro
Kool & The Gang - Perfect Union (2021) [Official Digital Download]

Kool & The Gang - Perfect Union (2021)
FLAC (tracks) 24-bit/44,1 kHz | Front Cover | Time - 36:17 minutes | 423 MB
R'n'B, Soul, Funk | Label: Omnivore Recordings, Official Digital Download

25th studio release from Kool & The Gang, featuring the singles “Pursuit Of Happiness” and “Sexy (Where’d You Get Yours).”

Formed in 1964, The Jazziacs would play with McCoy Tyner, Pharoah Saunders, and other jazz greats. They would change their name to Kool & The Gang in 1969, sign with De-Lite Records and release their self-titled debut the following year. 1973’s Wild And Peaceful featured the Gold singles “Jungle Boogie” and “Hollywood Swinging.” The end of that decade and beginning of the next saw them collaborating with producer Eumir Deodato for a string of Platinum albums—Ladies Night, Celebrate!, and Something Special. They continued through the 80s with more Platinum albums, including Emergency, which featured four Top 20 singles.

The use of “Jungle Boogie” in 1994’s Pulp Fiction brought a new generation of fans to the group, and David Lee Roth invited them to open for Van Halen’s A Different Kind Of Truth tour in 2012, after catching their set at Glastonbury. 2016’s Kool & The Gang And Friends! had them collaborating with artists including Sean Paul, Angie Stone, Redman, Jamiroquai, Lisa Stansfield, and more. Kool & The Gang have won multiple Grammy® and American Music Awards, have been inducted into the Songwriters Hall of Fame, and have sold over 70 million records worldwide!

Over five decades since their formation, Kool & The Gang returns with their 25th studio album—Perfect Union. Produced by Ronald Khalis Bell (a founding member of the group who passed away in 2020), this CD / Digital release contains 10 tracks including the new single “Pursuit Of Happiness” and “Sexy (Where’d You Get Yours),” which hit #16 on the Adult R&B charts and a rap version of “Pursuit Of Happiness.”

To make things even more special, the release is the first on Omnivore’s reactivated Ru-Jac Records label!

So, celebrate Kool & The Gang’s sixth decade of hit making with Perfect Union!

Tracklist:
1. Pursuit of Happiness (05:13)
2. The Weekend (03:08)
3. Leave It on the Dance Floor (03:18)
4. High (04:46)
5. Sexy (Where'd You Get Yours) (02:48)
6. All to Myself (03:34)
7. R.O.Y.A.L.T.Y. (Kool & The Gang Mix) (03:11)
8. Hold On (03:35)
9. Good Time (03:21)
10. Pursuit of Happiness (Rap Version) (03:18)

foobar2000 1.4.1 / Dynamic Range Meter 1.1.1
log date: 2021-08-19 17:48:56

––––––––––––––––––––––––––––––––––––––––
Analyzed: Kool & The Gang / Perfect Union
––––––––––––––––––––––––––––––––––––––––

DR Peak RMS Duration Track
––––––––––––––––––––––––––––––––––––––––
DR6 -0.21 dB -7.48 dB 5:13 01/10-Pursuit of Happiness
DR7 -0.21 dB -7.80 dB 3:09 02/10-The Weekend
DR8 -0.21 dB -9.09 dB 3:18 03/10-Leave It on the Dance Floor
DR9 -0.21 dB -9.72 dB 4:46 04/10-High
DR7 -0.01 dB -8.32 dB 2:49 05/10-Sexy (Where'd You Get Yours)
DR7 -0.21 dB -9.46 dB 3:35 06/10-All to Myself
DR6 -2.00 dB -8.58 dB 3:12 07/10-R.O.Y.A.L.T.Y. (Kool & The Gang Mix)
DR8 -0.21 dB -9.32 dB 3:35 08/10-Hold On
DR8 -0.11 dB -9.34 dB 3:22 09/10-Good Time
DR6 -0.21 dB -7.57 dB 3:19 10/10-Pursuit of Happiness (Rap Version)
––––––––––––––––––––––––––––––––––––––––

Number of tracks: 10
Official DR value: DR7

Samplerate: 44100 Hz
Channels: 2
Bits per sample: 24
Bitrate: 1623 kbps
Codec: FLAC
================================================================================


Thanks to the Original customer!