Tags
Language
Tags

Larry Williams - The Astonishing... Larry Williams! (Remastered) (2022) [Official Digital Download 24/96]

Posted By: delpotro
Larry Williams - The Astonishing... Larry Williams! (Remastered) (2022) [Official Digital Download 24/96]

Larry Williams - The Astonishing… Larry Williams! (Remastered) (2022)
FLAC (tracks) 24-bit/96 kHz | Front Cover | Time - 45:15 minutes | 734 MB
Rock'n'Roll, R'n'B | Label: RevOla Records, Official Digital Download

Larry Williams was an American rhythm and blues and rock and roll singer, songwriter, producer, and pianist from New Orleans, Louisiana. Williams is best known for writing and recording some rock and roll classics from 1957 to 1959 for Specialty Records, including "Bony Moronie", "Short Fat Fannie", "Slow Down", "Dizzy, Miss Lizzy" (1958), "Bad Boy" and "She Said Yeah" (1959). John Lennon was a fan, and The Beatles and several other British Invasion groups recorded several of his songs.

Tracklist:
1. Short Fat Fannie (Remastered) (02:24)
2. Baby's Crazy (Remastered) (02:33)
3. Dizzy Miss Lizzie (Remastered) (02:12)
4. Lawdy Miss Clawdy (Remastered) (02:12)
5. Slow Down (Remastered) (02:44)
6. I Was A Fool To Let You Go (Remastered) (03:01)
7. You Bug Me Baby (Remastered) (01:54)
8. Rockin' Pneumonia And The Boogie Woogie 'Flu (Remastered) (02:15)
9. She Said 'Yeah' (Remastered) (01:51)
10. Hootchy-Koo (Remastered) (02:39)
11. Bony Moronie (Remastered) (03:04)
12. Little School Girl (Remastered) (01:53)
13. Just Because (Remastered) (02:47)
14. Hocus Pocus (Remastered) (01:59)
15. Took A Trip (Remastered) (02:03)
16. Jelly Belly Nellie (Remastered) (02:00)
17. Make A Little Love (Remastered) (02:01)
18. Peaches And Cream (Remastered) (02:01)
19. Oh Babe (Remastered) (02:09)
20. Zing Zing (Remastered) (02:06)
21. The Dummy (Remastered) (02:38)
22. Bad Boy (Remastered) (02:18)

foobar2000 1.4.1 / Dynamic Range Meter 1.1.1
log date: 2022-07-04 18:30:32

––––––––––––––––––––––––––––––––––––––––
Analyzed: LARRY WILLIAMS / The Astonishing……..Larry Williams! (Remastered)
––––––––––––––––––––––––––––––––––––––––

DR Peak RMS Duration Track
––––––––––––––––––––––––––––––––––––––––
DR14 -0.46 dB -16.28 dB 2:24 01-Short Fat Fannie (Remastered)
DR12 0.00 dB -15.23 dB 2:34 02-Baby's Crazy (Remastered)
DR13 -0.57 dB -15.42 dB 2:12 03-Dizzy Miss Lizzie (Remastered)
DR13 -0.13 dB -15.02 dB 2:12 04-Lawdy Miss Clawdy (Remastered)
DR11 -1.45 dB -14.04 dB 2:45 05-Slow Down (Remastered)
DR14 -0.27 dB -16.78 dB 3:01 06-I Was a Fool to Let You Go (Remastered)
DR11 -1.49 dB -14.37 dB 1:54 07-You Bug Me Baby (Remastered)
DR13 -3.60 dB -18.06 dB 2:16 08-Rockin' Pneumonia and the Boogie Woogie 'Flu (Remastered)
DR13 -0.76 dB -15.28 dB 1:52 09-She Said 'Yeah' (Remastered)
DR13 -0.28 dB -15.25 dB 2:39 10-Hootchy-Koo (Remastered)
DR13 -0.65 dB -15.28 dB 3:04 11-Bony Moronie (Remastered)
DR11 -2.48 dB -14.49 dB 0:12 12-Little School Girl (Remastered)
DR12 -0.51 dB -14.26 dB 2:48 13-Just Because (Remastered)
DR13 0.00 dB -15.56 dB 2:00 14-Hocus Pocus (Remastered)
DR13 -0.51 dB -16.66 dB 2:03 15-Took a Trip (Remastered)
DR13 -1.18 dB -16.12 dB 2:00 16-Jelly Belly Nellie (Remastered)
DR12 -1.93 dB -15.81 dB 2:02 17-Make a Little Love (Remastered)
DR14 -0.35 dB -15.66 dB 2:01 18-Peaches and Cream (Remastered)
DR11 -3.27 dB -16.64 dB 0:14 19-Oh Babe (Remastered)
DR11 -7.24 dB -18.86 dB 0:05 20-Zing Zing (Remastered)
DR11 -2.81 dB -15.19 dB 2:38 21-The Dummy (Remastered)
DR12 -2.27 dB -15.97 dB 2:18 22-Bad Boy (Remastered)
––––––––––––––––––––––––––––––––––––––––

Number of tracks: 22
Official DR value: DR12

Samplerate: 96000 Hz
Channels: 2
Bits per sample: 24
Bitrate: 2236 kbps
Codec: FLAC
================================================================================


Thanks to the Original customer!