Los Lobos - By The Light Of The Moon (1987) [MFSL 2012] PS3 ISO + Hi-Res FLAC

Posted By: HDAtall
Los Lobos - By The Light Of The Moon (1987) [MFSL 2012] PS3 ISO + Hi-Res FLAC

Los Lobos - By The Light Of The Moon (1987) [MFSL 2012]
PS3 Rip | SACD ISO | DSD64 2.0 > 1-bit/2.8224 MHz | 40:39 minutes | Scans included | 1,27 GB
or FLAC(converted with foobar2000 to tracks) 24bit/96 kHz | Full Scans included | 976 MB
Mobile Fidelity Sound Lab # UDSACD 2064

Los Lobos might have touted themselves as “just another band from East L.A.”, but it’s quite likely that even the group’s humble members recognized that few—if any—other artists in the late 1980s rivaled their soulful music, rousing performances, and eclectically blended arrangements. While lacking the commercial status of the quintet’s subsequent La Bamba release, By the Light of the Moon stands as the band’s most enjoyable excursion into American-hued soul, penetratingly reflective lyrics, and earnest roots rock. The music making is simply extraordinary.

On How Will the Wolf Survive?, Los Lobos seemed to be feeling out the boundaries of how much they could say about the hard realities of life within the framework of good-time R&B-flavored rock & roll, and on their next album, 1987's By the Light of the Moon, the group gently shifted their focus to favor their more contemplative side. While the band certainly hadn't lost the ability to rock out (check out "My Baby's Gone" or "Shakin' Shakin' Shakes" for proof), most of the album displayed a lighter touch musically, with David Hidalgo's deft lead guitar and Cesar Rosas' precise rhythm chords fueling lean but smoky R&B numbers like "Is That All There Is?" and "All I Wanted to Do Was Dance" and understated musical snapshots like "One Time, One Night" and "River of Fools." Lyrically, By the Light of the Moon is dominated by the sad mysteries of life and the less-than-generous nature of fate, as ordinary people try to come to terms with death ("One Time, One Night"), disappointment ("Is That All There Is?"), love that's faded into the shadows ("The Hardest Time"), and the mingled comfort and uncertainties of faith ("Tears of God"). While the soundtrack album to the movie La Bamba, released the same year, captured Los Lobos at their most carefree and high-spirited as they called up the spirit of Ritchie Valens, By the Light of the Moon showed the other side of the coin as the group looked into the hearts and souls of themselves and the community around them, and if it's a harder album to enjoy than those that preceded it, its depth rewards repeated listenings.

Tracklist:

01. One Time, One Night
02. Shakin' Shakin' Shakes
03. Is This All There Is?
04. Prenda Del Alma
05. All I Wanted To Do Was Dance
06. Set Me Free (Rosa Lee)
07. The Hardest Time
08. My Baby's Gone
09. River Of Fools
10. The Mess We're In
11. Tears Of God

Mastered by Shawn R. Britton at Mobile Fidelity Sound Lab, Sebastopol, CA.

foobar2000 1.4 / Dynamic Range Meter 1.1.1

––––––––––––––––––––––––––––––––––––––––
Analyzed: Los Lobos / By The Light Of The Moon
––––––––––––––––––––––––––––––––––––––––

DR Peak RMS Duration Track
––––––––––––––––––––––––––––––––––––––––
DR12 -6.29 dB -19.86 dB 4:49 01-One Time, One Night
DR10 -6.19 dB -18.99 dB 4:14 02-Shakin' Shakin' Shakes
DR12 -6.29 dB -20.53 dB 4:00 03-Is This All There Is?
DR12 -6.50 dB -19.87 dB 3:26 04-Prenda Del Alma
DR12 -6.13 dB -20.37 dB 3:57 05-All I Wanted To Do Was Dance
DR13 -6.22 dB -21.22 dB 3:36 06-Set Me Free (Rosa Lee)
DR12 -6.45 dB -19.76 dB 3:13 07-The Hardest Time
DR12 -6.27 dB -20.12 dB 3:41 08-My Baby's Gone
DR12 -6.59 dB -22.64 dB 2:55 09-River Of Fools
DR12 -6.34 dB -19.75 dB 3:02 10-The Mess We're In
DR13 -6.77 dB -22.76 dB 3:46 11-Tears Of God
––––––––––––––––––––––––––––––––––––––––

Number of tracks: 11
Official DR value: DR12

Samplerate: 2822400 Hz / PCM Samplerate: 88200 Hz
Channels: 2
Bits per sample: 24
Bitrate: 5645 kbps
Codec: DSD64


Thanks to PS³SACD!
Uncompressed SACD ISO size > 1,63 GB
>