Tags
Language
Tags
March 2024
Su Mo Tu We Th Fr Sa
25 26 27 28 29 1 2
3 4 5 6 7 8 9
10 11 12 13 14 15 16
17 18 19 20 21 22 23
24 25 26 27 28 29 30
31 1 2 3 4 5 6
Attention❗ To save your time, in order to download anything on this site, you must be registered 👉 HERE. If you do not have a registration yet, it is better to do it right away. ✌

( • )( • ) ( ͡⚆ ͜ʖ ͡⚆ ) (‿ˠ‿)
SpicyMags.xyz

Lou Donaldson - Lou Takes Off (1957) [DAD Reissue 2001 > Hi-Res FLAC 24 bit/96 kHz]

Posted By: HDV
Lou Donaldson - Lou Takes Off (1957) [DAD Reissue 2001 > Hi-Res FLAC 24 bit/96 kHz]

Lou Donaldson - Lou Takes Off (1957) [DAD Reissue 2001]
FLAC (tracks) 24 bit/96 kHz | Time - 38:36 minutes | 890 MB
DAD to Hi-Res FLAC - Source: Classic Records' DAD 1026 | Front cover

The influence of Charlie Parker can be heard in virtually every modern jazz musician, particularly players of the alto saxophone. Although considered to be one of "Bird's Children," Lou Donaldson absorbed and synthesized other pre-Parker influences, such as Johnny Hodges and Benny Carter. This recording marks a period in his development prior to a stylistic shift away from bop and toward a stronger rhythm and blues emphasis. Three up-tempo tunes are pure bebop; the remaining number is a medium blues in B flat, quite characteristic of the hard bop period. The front line on this set includes Donald Byrd and Curtis Fuller; the rhythm section is Sonny Clark, George Joyner, and Art Taylor. Overall, Lou Takes Off breaks no new musical ground, but it is a solid, swinging session of high-caliber playing.

Tracklist:

01 - Sputnik
02 - Dewey Square
03 - Strollin' In
04 - Groovin' High

Produced by Alfred Lion. Engineered by Rudy Van Gelder.
Recorded on December 15, 1957 at Van Gelder Studio, New Jersey.

Musicians
Lou Donaldson - alto sax
Donald Byrd - trumpet
Curtis Fuller - trombone
Sonny Clark - piano
George Joyner - bass
Art Taylor - drums

Analyzed: Lou Donaldson / Lou Takes Off (Classic Records DAD)
––––––––––––––––––––––––––––––––––––––––

DR Peak RMS Duration Track
––––––––––––––––––––––––––––––––––––––––
DR13 -3.10 dB -18.98 dB 10:07 01-Sputnik
DR13 -2.86 dB -19.29 dB 7:24 02-Dewey Square
DR14 -1.98 dB -21.12 dB 14:37 03-Strollin' In
DR12 -3.18 dB -18.79 dB 6:28 04-Groovin' High
––––––––––––––––––––––––––––––––––––––––

Number of tracks: 4
Official DR value: DR13

Samplerate: 96000 Hz
Channels: 2
Bits per sample: 24
Bitrate: 3145 kbps
Codec: FLAC
================================================================================


All files were fully tagged.