Tags
Language
Tags
March 2024
Su Mo Tu We Th Fr Sa
25 26 27 28 29 1 2
3 4 5 6 7 8 9
10 11 12 13 14 15 16
17 18 19 20 21 22 23
24 25 26 27 28 29 30
31 1 2 3 4 5 6

Flute Ensemble LYNX - Flute (2007) MCH SACD ISO + DSD64 + Hi-Res FLAC

Posted By: HDAtall
Flute Ensemble LYNX - Flute (2007) MCH SACD ISO + DSD64 + Hi-Res FLAC

LYNX - Flute (2007)
SACD Rip | SACD ISO | DST64 2.0 & 5.1 > 1-bit/2.8224 MHz | 68:29 minutes | Scans included | 3,61 GB
or DSD64 Stereo (from SACD-ISO to Tracks.dsf) > 1-bit/2.8224 MHz | Basic Scans included | 1,69 GB
or FLAC 2.0 (carefully converted & encoded to tracks) 24bit/96 kHz | Basic Scans included | 1,43 GB
Features Stereo and Multichannel Surround Sound | Saidera Records / Omagatoki Japan # OMCA-1060

Flute Ensemble LYNX - Flute (2007) MCH SACD ISO + DSD64 + Hi-Res FLAC

Tracklist:

01. J.S.Bach: Ouverture - Orchestral Suites No.2 h moll BWV1067
02. J.S.Bach: Rondeau - Orchestral Suites No.2 h moll BWV1067
03. J.S.Bach: Sarabande - Orchestral Suites No.2 h moll BWV1067
04. J.S.Bach: Bourree - Orchestral Suites No.2 h moll BWV1067
05. J.S.Bach: Polonaise - Orchestral Suites No.2 h moll BWV1067
06. J.S.Bach: Menuet - Orchestral Suites No.2 h moll BWV1067
07. J.S.Bach: Badinerie - Orchestral Suites No.2 h moll BWV1067
08. Mozart: Symphony No.25 g moll K.183 - I Allegro con brio
09. Smetana: The Moldau from "My Fatherland"
10. Wagner: Tannhäuser - Overture
11. Tchaikovsky : Symphony No.6 - III Allegro molto Vivace
12. Dvorak: Symphony No.9 - II Largo
13. Beethoven: Symphony No.5 - I Allegro con brio
14. Ravel: Bolero
15. J.S.Bach: Toccata and Fugue d-moll BWV565

foobar2000 1.6.6 / Dynamic Range Meter 1.1.1

––––––––––––––––––––––––––––––––––––––––
Analyzed: LYNX / flute
––––––––––––––––––––––––––––––––––––––––

DR Peak RMS Duration Track
––––––––––––––––––––––––––––––––––––––––
DR12 -11.48 dB -29.86 dB 6:01 01-J.S.Bach: Ouverture / Orchestral Suites No.2 h moll BWV1067
DR13 -12.65 dB -31.26 dB 1:55 02-J.S.Bach: Rondeau / Orchestral Suites No.2 h moll BWV1067
DR12 -13.01 dB -30.40 dB 2:45 03-J.S.Bach: Sarabande /Orchestral Suites No.2 h moll BWV1067
DR13 -12.06 dB -30.40 dB 1:50 04-J.S.Bach: Bourree / Orchestral Suites No.2 h moll BWV1067
DR13 -10.71 dB -29.18 dB 2:49 05-J.S.Bach: Polonaise / Orchestral Suites No.2 h moll BWV1067
DR13 -11.25 dB -30.52 dB 1:13 06-J.S.Bach: Menuet / Orchestral Suites No.2 h moll BWV1067
DR12 -12.95 dB -30.59 dB 1:24 07-J.S.Bach: Badinerie / Orchestral Suites No.2 h moll BWV1067
DR14 -9.97 dB -29.55 dB 5:23 08-Mozart: Symphony No.25 g moll K.183 I Allegro con brio
DR13 -7.30 dB -27.68 dB 7:16 09-Smetana: The Moldau from "My Fatherland"
DR12 -11.17 dB -29.21 dB 4:12 10-Wagner: Tannhäuser Overture
DR14 -5.77 dB -27.22 dB 4:50 11-Tchaikovsky : Symphony No.6 III Allegro molto Vivace
DR14 -7.98 dB -30.71 dB 7:02 12-Dvorak: Symphony No.9 II Largo
DR13 -5.94 dB -25.69 dB 5:59 13-Beethoven: Symphony No.5 I Allegro con brio
DR14 -5.91 dB -28.51 dB 7:21 14-Ravel: Bolero
DR13 -7.95 dB -28.74 dB 8:29 15-J.S.Bach: Toccata and Fugue d-moll BWV565
––––––––––––––––––––––––––––––––––––––––

Number of tracks: 15
Official DR value: DR13

Samplerate: 2822400 Hz / PCM Samplerate: 176400 Hz
Channels: 5
Bits per sample: 1
Bitrate: 14112 kbps
Codec: DST64
================================================================================

––––––––––––––––––––––––––––––––––––––––
Analyzed: LYNX / flute
––––––––––––––––––––––––––––––––––––––––

DR Peak RMS Duration Track
––––––––––––––––––––––––––––––––––––––––
DR12 -11.44 dB -26.86 dB 6:01 01-J.S.Bach: Ouverture / Orchestral Suites No.2 h moll BWV1067
DR13 -12.30 dB -28.28 dB 1:55 02-J.S.Bach: Rondeau / Orchestral Suites No.2 h moll BWV1067
DR12 -12.06 dB -27.44 dB 2:45 03-J.S.Bach: Sarabande /Orchestral Suites No.2 h moll BWV1067
DR12 -11.67 dB -27.40 dB 1:50 04-J.S.Bach: Bourree / Orchestral Suites No.2 h moll BWV1067
DR12 -7.03 dB -26.23 dB 2:49 05-J.S.Bach: Polonaise / Orchestral Suites No.2 h moll BWV1067
DR13 -9.76 dB -27.45 dB 1:13 06-J.S.Bach: Menuet / Orchestral Suites No.2 h moll BWV1067
DR12 -12.35 dB -27.37 dB 1:24 07-J.S.Bach: Badinerie / Orchestral Suites No.2 h moll BWV1067
DR13 -8.75 dB -26.45 dB 5:23 08-Mozart: Symphony No.25 g moll K.183 I Allegro con brio
DR13 -7.05 dB -24.80 dB 7:16 09-Smetana: The Moldau from "My Fatherland"
DR12 -8.76 dB -26.04 dB 4:12 10-Wagner: Tannhäuser Overture
DR13 -5.99 dB -24.46 dB 4:50 11-Tchaikovsky : Symphony No.6 III Allegro molto Vivace
DR14 -7.88 dB -27.86 dB 7:02 12-Dvorak: Symphony No.9 II Largo
DR12 -5.81 dB -22.74 dB 5:59 13-Beethoven: Symphony No.5 I Allegro con brio
DR14 -5.70 dB -25.65 dB 7:21 14-Ravel: Bolero
DR13 -8.09 dB -26.12 dB 8:29 15-J.S.Bach: Toccata and Fugue d-moll BWV565
––––––––––––––––––––––––––––––––––––––––

Number of tracks: 15
Official DR value: DR13

Samplerate: 2822400 Hz / PCM Samplerate: 176400 Hz
Channels: 2
Bits per sample: 1
Bitrate: 5645 kbps
Codec: DST64


Thanks to "Безымянный Меломан"!
Uncompressed SACD ISO size > 3,42 GB
>