Tags
Language
Tags

Magdalena Kožená & Yefim Bronfman - Nostalgia: Brahms, Mussorgsky & Bartók (2021) [Official Digital Download 24/96]

Posted By: delpotro
Magdalena Kožená & Yefim Bronfman - Nostalgia: Brahms, Mussorgsky & Bartók (2021) [Official Digital Download 24/96]

Magdalena Kožená & Yefim Bronfman - Nostalgia: Brahms, Mussorgsky & Bartók (2021)
FLAC (tracks) 24-bit/96 kHz | Front Cover & Digital Booklet | Time - 64:06 minutes | 1,05 GB
Classical, Vocal | Label: Pentatone, Official Digital Download

On her third PENTATONE album Nostalgia, Magdalena Kožená presents Bartók’s Village Scenes, Mussorgsky’s The Nursery and a selection of Brahms songs, together with acclaimed pianist Yefim Bronfman. Sung in Slovak, Russian and German, these songs on love, longing and innocence show three master composers transforming folk traditions into their unique musical styles. Kožená demonstrates her vocal mastery once more, and this recording with Bronfman is the result of a two-decades-spanning congenial artistic partnership. Nostalgia is star mezzo-soprano Magdalena Kožená’s third album as part of her exclusive collaboration with PENTATONE, after having presented the baroque cantatas recital album Il giardino dei sospiri and the songs in chamber-musical setting project Soirée in 2019. Yefim Bronfman, whose commanding technique, power and exceptional lyrical gifts are consistently acknowledged by the press and audiences alike, makes his PENTATONE debut.

Tracklist:
1. Village Scenes, Sz. 78: No. 1, Haymaking (01:12)
2. Village Scenes, Sz. 78: No. 2, At the Bride (01:34)
3. Village Scenes, Sz. 78: No. 3, Wedding (02:41)
4. Village Scenes, Sz. 78: No. 4, Lullaby (04:50)
5. Village Scenes, Sz. 78: No. 5, Lads' Dance (02:07)
6. The Nursery: No. 1, With Nanny (01:56)
7. The Nursery: No. 2, in the Corner (01:52)
8. The Nursery: No. 3, The Beetle (02:25)
9. The Nursery: No. 4, With a Doll (02:03)
10. The Nursery: No. 5, Bedtime Prayer (01:57)
11. The Nursery: No. 6, Riding on a Hobby-Horse (03:37)
12. The Nursery: No. 7, Sailor, the Cat (02:28)
13. Meine Liebe ist grün, Op. 63 No. 5 (01:42)
14. Nachtigall, Op. 97 No. 1 (02:36)
15. Verzagen, Op. 72 No. 4 (02:59)
16. Bei dir sind meine Gedanken, Op. 95 No. 2 (01:54)
17. Von ewiger Liebe, Op. 43 No. 1 (04:45)
18. Anklänge, Op. 7 No. 3 (02:10)
19. Das Mädchen spricht, Op. 107 No. 3 (01:21)
20. Meerfahrt, Op. 96 No. 4 (03:11)
21. Der Schmied, Op. 19 No. 4 (01:09)
22. Ach, wende diesen Blick, Op. 57 No. 4 (02:09)
23. O wüsst’ ich doch den Weg zurück, Op. 63 No. 8 (03:52)
24. Mädchenlied, Op. 107 No. 5 (01:24)
25. Unbewegte, laue Luft, Op. 57 No. 8 (04:00)
26. Vergebliches Ständchen, Op. 84 No. 4 (01:59)

foobar2000 1.4.1 / Dynamic Range Meter 1.1.1
log date: 2021-09-08 11:29:42

––––––––––––––––––––––––––––––––––––––––
Analyzed: Magdalena Kožená & Yefim Bronfman / Nostalgia: Brahms, Mussorgsky & Bartók
––––––––––––––––––––––––––––––––––––––––

DR Peak RMS Duration Track
––––––––––––––––––––––––––––––––––––––––
DR12 -3.17 dB -20.43 dB 1:13 01-Bartók: Village Scenes, Sz. 78: No. 1, Haymaking
DR12 -3.53 dB -21.90 dB 1:35 02-Bartók: Village Scenes, Sz. 78: No. 2, At the Bride
DR12 -0.30 dB -17.37 dB 2:42 03-Bartók: Village Scenes, Sz. 78: No. 3, Wedding
DR12 -10.00 dB -27.12 dB 4:51 04-Bartók: Village Scenes, Sz. 78: No. 4, Lullaby
DR15 -0.30 dB -19.38 dB 2:07 05-Bartók: Village Scenes, Sz. 78: No. 5, Lads' Dance
DR15 -1.28 dB -20.90 dB 1:56 06-Mussorgsky: The Nursery: No. 1, With Nanny
DR15 -0.30 dB -21.47 dB 1:53 07-Mussorgsky: The Nursery: No. 2, In the Corner
DR14 -0.43 dB -19.19 dB 2:25 08-Mussorgsky: The Nursery: No. 3, The Beetle
DR14 -4.85 dB -23.84 dB 2:04 09-Mussorgsky: The Nursery: No. 4, With a Doll
DR13 -0.30 dB -20.80 dB 1:57 10-Mussorgsky: The Nursery: No. 5, Bedtime Prayer
DR16 -1.84 dB -22.11 dB 3:37 11-Mussorgsky: The Nursery: No. 6, Riding on a Hobby-Horse
DR14 -1.71 dB -21.64 dB 2:29 12-Mussorgsky: The Nursery: No. 7, Sailor, the Cat
DR12 -2.38 dB -18.08 dB 1:42 13-Brahms: 9 Lieder und Gesänge, Op. 63: No. 5, Meine Liebe ist grün
DR14 -3.69 dB -25.43 dB 2:36 14-Brahms: 6 Lieder, Op. 97: No. 1, Nachtigall
DR13 -1.08 dB -19.09 dB 3:00 15-Brahms: 5 Gesänge, Op. 72: No. 4, Verzagen
DR14 -2.30 dB -22.07 dB 1:54 16-Brahms: 7 Lieder, Op. 95: No. 2, Bei dir sind meine Gedanken
DR13 -2.06 dB -21.19 dB 4:46 17-Brahms: 4 Gesänge, Op. 43: No. 1, Von ewiger Liebe
DR12 -5.98 dB -25.29 dB 2:11 18-Brahms: 6 Gesänge, Op. 7: No. 3, Anklänge
DR13 -2.77 dB -20.65 dB 1:22 19-Brahms: 5 Lieder, Op. 107: No. 3, Das Mädchen spricht
DR13 -4.97 dB -23.76 dB 3:11 20-Brahms: 4 Lieder, Op. 96: No. 4, Meerfahrt
DR12 -1.71 dB -18.42 dB 1:09 21-Brahms: 5 Gedichte, Op. 19: No. 4, Der Schmied
DR13 -0.30 dB -18.95 dB 2:10 22-Brahms: 8 Lieder und Gesänge, Op. 57: No. 4, Ach, wende diesen Blick
DR14 -4.43 dB -23.71 dB 3:53 23-Brahms: 9 Lieder und Gesänge, Op. 63: No. 8, O wüsst’ ich doch den Weg zurück
DR14 -4.54 dB -23.99 dB 1:25 24-Brahms: 5 Lieder, Op. 107: No. 5, Mädchenlied
DR14 -0.30 dB -20.93 dB 4:00 25-Brahms: 8 Lieder und Gesänge, Op. 57: No. 8, Unbewegte, laue Luft
DR14 -3.60 dB -21.44 dB 2:00 26-Brahms: 5 Romanzen und Gesänge, Op. 84: No. 4, Vergebliches Ständchen
––––––––––––––––––––––––––––––––––––––––

Number of tracks: 26
Official DR value: DR13

Samplerate: 96000 Hz
Channels: 2
Bits per sample: 24
Bitrate: 2386 kbps
Codec: FLAC
================================================================================


Thanks to the Original customer!