Tags
Language
Tags
November 2022
Su Mo Tu We Th Fr Sa
30 31 1 2 3 4 5
6 7 8 9 10 11 12
13 14 15 16 17 18 19
20 21 22 23 24 25 26
27 28 29 30 1 2 3

Marc Bouchkov, Claire Huangci, Kammerorchstra Basel & Howard Griffiths - Mendelssohn: Works for Violin and Piano (2022) [24/96]

Posted By: delpotro
Marc Bouchkov, Claire Huangci, Kammerorchstra Basel & Howard Griffiths - Mendelssohn: Works for Violin and Piano (2022) [24/96]

Marc Bouchkov, Claire Huangci, Kammerorchstra Basel & Howard Griffiths - Mendelssohn- Works for Violin and Piano (2022)
FLAC (tracks) 24-bit/96 kHz | Front Cover | Time - 79:11 minutes | 1,4 GB
Classical | Label: Berlin Classics, Official Digital Download

Mendelssohn is a challenge, because his music appears to be so deceptively easy,” says the pianist Claire Huangci, speaking about her new album. Together with violinist Marc Bouchkov she has recorded works by Mendelssohn for violin and piano: the two Violin Sonatas in F – one major, one minor – and the Double Concerto in D minor. They are accompanied in the latter work by the successful conductor Howard Griffiths and the Basel Chamber Orchestra. As Ms Huangci points out, this represents a program rich in contrasts highlighting Mendelssohn’s artistry and the versatility of such a combination of works: “A mix requiring wit and brilliance on the one hand, while also requiring the performers to go beneath the surface and reveal a deeper meaning including sorrow, compassion and nobility, and that is something that is not easy to detect at first glance. The young Felix Mendelssohn has such a feel for the dramatic.

Tracklist:
1. Claire Huangci, Marc Bouchkov, Kammerorchester Basel & Howard Griffiths – Concerto for Violin, Piano and String Orchestra in D Minor: I. Allegro (18:55)
2. Claire Huangci, Marc Bouchkov, Kammerorchester Basel & Howard Griffiths – Concerto for Violin, Piano and String Orchestra in D Minor: II. Adagio (08:48)
3. Claire Huangci, Marc Bouchkov, Kammerorchester Basel & Howard Griffiths – Concerto for Violin, Piano and String Orchestra in D Minor: III. Allegro molto (09:05)
4. Claire Huangci & Marc Bouchkov – Violin Sonata in F Minor, Op. 4: I. Adagio - Allegro moderato (07:39)
5. Claire Huangci & Marc Bouchkov – Violin Sonata in F Minor, Op. 4: II. Poco adagio (07:24)
6. Claire Huangci & Marc Bouchkov – Violin Sonata in F Minor, Op. 4: III. Allegro agitato (04:50)
7. Claire Huangci & Marc Bouchkov – Violin Sonata in F Major (1st version, 1838): I. Allegro vivace (09:44)
8. Claire Huangci & Marc Bouchkov – Violin Sonata in F Major (1st version, 1838): II. Adagio (06:53)
9. Claire Huangci & Marc Bouchkov – Violin Sonata in F Major (1st version, 1838): III. Assai vivace (05:50)

foobar2000 1.4.1 / Dynamic Range Meter 1.1.1
log date: 2022-02-16 10:34:21

––––––––––––––––––––––––––––––––––––––––
Analyzed: Marc Bouchkov, Claire Huangci, Kammerorchstra Basel & Howard Griffiths / Mendelssohn: Works for Violin and Piano
––––––––––––––––––––––––––––––––––––––––

DR Peak RMS Duration Track
––––––––––––––––––––––––––––––––––––––––
DR13 -1.10 dB -18.76 dB 18:55 01-Mendelssohn: Concerto for Violin, Piano and String Orchestra in D Minor: I. Allegro
DR14 -4.24 dB -25.00 dB 8:49 02-Mendelssohn: Concerto for Violin, Piano and String Orchestra in D Minor: II. Adagio
DR12 -1.10 dB -17.35 dB 9:05 03-Mendelssohn: Concerto for Violin, Piano and String Orchestra in D Minor: III. Allegro molto
DR15 -3.35 dB -23.24 dB 7:40 04-Mendelssohn: Violin Sonata in F Minor, Op. 4: I. Adagio - Allegro moderato
DR15 -3.44 dB -24.79 dB 7:24 05-Mendelssohn: Violin Sonata in F Minor, Op. 4: II. Poco adagio
DR14 -1.10 dB -20.17 dB 4:51 06-Mendelssohn: Violin Sonata in F Minor, Op. 4: III. Allegro agitato
DR14 -1.10 dB -19.17 dB 9:44 07-Mendelssohn: Violin Sonata in F Major (1st version, 1838): I. Allegro vivace
DR15 -1.58 dB -23.63 dB 6:54 08-Mendelssohn: Violin Sonata in F Major (1st version, 1838): II. Adagio
DR14 -1.10 dB -19.65 dB 5:50 09-Mendelssohn: Violin Sonata in F Major (1st version, 1838): III. Assai vivace
––––––––––––––––––––––––––––––––––––––––

Number of tracks: 9
Official DR value: DR14

Samplerate: 96000 Hz
Channels: 2
Bits per sample: 24
Bitrate: 2484 kbps
Codec: FLAC
================================================================================


Thanks to the Original customer!