Tags
Language
Tags

NFM Wrocław Philharmonic, NFM Choir & Antoni Wit - Witold Lutosławski: Opera Omnia vol. 8 (2022) [Digital Download 24/96]

Posted By: delpotro
NFM Wrocław Philharmonic, NFM Choir & Antoni Wit - Witold Lutosławski: Opera Omnia vol. 8 (2022) [Digital Download 24/96]

NFM Wrocław Philharmonic, NFM Choir & Antoni Wit - Witold Lutosławski: Opera Omnia vol. 8 (2022)
FLAC (tracks) 24-bit/96 kHz | Front Cover & Digital Booklet | Time - 41:50 minutes | 761 MB
Classical, Choral | Label: CD Accord, Official Digital Download

Lutosławski’s twenty carols are not a ‘Top Twenty’ collection; conspicuous by their absence are some of the most popular carols like Wśród nocnej ciszy (In the midst of night’s quiet), Mędrcy świata (Wise men of the world) or Pójdźmy wszyscy do stajenki (Let’s all go to the stable) while little known works are included.

Nevertheless our compilation effectively represents the genre’s main varieties. Here we have two basic models: the lullaby and pastorale (sometimes considered a separate genre – like in Mioduszewski’s works). The borderlines between the carol and the pastorale are fluent; the presence of a pastoral topos itself, notated in the gospels, does not predetermine its affiliation. However, in my opinion, one is able to discover a generic determinant: possibly by individualizing the shepherds, including giving them names, giving a greater role to details of everyday life and including an element of dialogue; a pastorale can be – like in other countries – a para-theatrical genre, whose sources are often deeply-rooted: in Poland we also come across direct references to ancient Arcadian settings, together with Greek names.

The lullabies are rather more homely with Slavic lyricism undoubtedly at their core. Gdy śliczna Panna (Our lovely Lady), Jezus malusieńki (Jesus there is lying), Dziecina mała (Infant, so tiny) and of course the extremely popular Lulajże, Jezuniu (Lullaby, Jesus; paraphrased by Chopin) are clearly stamped with ethnicity, both in terms of text and music.

Some melodies however do not fit in with this dichotomy. Such is the first chorale Anioł pasterzom mówił (Angel to the shepherds came); the same can be said of the solemn Gdy się Chrystus rodzi (When the Christ to us is born) scripted by a rather more academic hand, as well as the aristocratic Bóg się rodzi (God is born) – the only carol whose text was penned by the prominent poet, Franciszek Karpiński (1741–1825), a leading figure of Polish Enlightenment and Pre-Romanticism. His exquisite poem based on a series of oxymorons has almost become a national hymn, whose singing at the conclusion of services during the Christmas period has become a tradition. The work’s composer has never been identified – some see it as an arrangement, nevertheless in its entirety the piece suggests a professional technique.

Tracklist:
01. Lutosławski: Twenty Polish Christmas Carols: Angels to the shepherds came
02. Lutosławski: Twenty Polish Christmas Carols: Hey! We rejoice now
03. Lutosławski: Twenty Polish Christmas Carols: When the Christ to us Is born
04. Lutosławski: Twenty Polish Christmas Carols: Just after midnight
05. Lutosławski: Twenty Polish Christmas Carols: God Is born
06. Lutosławski: Twenty Polish Christmas Carols: Our lovely Lady
07. Lutosławski: Twenty Polish Christmas Carols: Hurrying to Bethlehem
08. Lutosławski: Twenty Polish Christmas Carols: In a manger
09. Lutosławski: Twenty Polish Christmas Carols: Jesus there Is lying
10. Lutosławski: Twenty Polish Christmas Carols: We Are shepherds
11. Lutosławski: Twenty Polish Christmas Carols: Lullaby, Jesus
12. Lutosławski: Twenty Polish Christmas Carols: Hey, on This day
13. Lutosławski: Twenty Polish Christmas Carols: Jesus, lovely flower
14. Lutosławski: Twenty Polish Christmas Carols: Hey la, hey la, shepherds there you Are
15. Lutosławski: Twenty Polish Christmas Carols: What to do with This child?
16. Lutosławski: Twenty Polish Christmas Carols: Hey, hey, lovely Lady Mary
17. Lutosławski: Twenty Polish Christmas Carols: This Is our Lord’s birthday
18. Lutosławski: Twenty Polish Christmas Carols: Shepherds, can you tell?
19. Lutosławski: Twenty Polish Christmas Carols: Infant, so tiny
20. Lutosławski: Twenty Polish Christmas Carols: Holy Lady Mary (Wandered through the world wide)

foobar2000 1.4.1 / Dynamic Range Meter 1.1.1
log date: 2022-01-12 08:42:05

––––––––––––––––––––––––––––––––––––––––
Analyzed: NFM Wrocław Philharmonic, NFM Choir & Antoni Wit / Witold Lutosławski - Opera omnia vol. 8
––––––––––––––––––––––––––––––––––––––––

DR Peak RMS Duration Track
––––––––––––––––––––––––––––––––––––––––
DR12 -2.32 dB -19.48 dB 2:25 01-Lutosławski: Twenty Polish Christmas Carols: Angels to the shepherds came
DR13 -0.76 dB -17.98 dB 0:52 02-Lutosławski: Twenty Polish Christmas Carols: Hey! We rejoice now
DR13 -0.59 dB -19.15 dB 1:55 03-Lutosławski: Twenty Polish Christmas Carols: When the Christ to us Is born
DR14 -0.59 dB -18.72 dB 1:41 04-Lutosławski: Twenty Polish Christmas Carols: Just after midnight
DR13 -1.82 dB -19.80 dB 2:23 05-Lutosławski: Twenty Polish Christmas Carols: God Is born
DR13 -1.44 dB -20.37 dB 3:33 06-Lutosławski: Twenty Polish Christmas Carols: Our lovely Lady
DR15 -1.73 dB -21.13 dB 0:57 07-Lutosławski: Twenty Polish Christmas Carols: Hurrying to Bethlehem
DR12 -2.57 dB -19.71 dB 2:10 08-Lutosławski: Twenty Polish Christmas Carols: In a manger
DR12 -2.50 dB -20.51 dB 1:32 09-Lutosławski: Twenty Polish Christmas Carols: Jesus there Is lying
DR15 -0.33 dB -19.58 dB 1:58 10-Lutosławski: Twenty Polish Christmas Carols: We Are shepherds
DR13 -4.95 dB -21.27 dB 2:00 11-Lutosławski: Twenty Polish Christmas Carols: Lullaby, Jesus
DR12 -0.26 dB -16.21 dB 1:22 12-Lutosławski: Twenty Polish Christmas Carols: Hey, on This day
DR14 -1.28 dB -19.80 dB 3:54 13-Lutosławski: Twenty Polish Christmas Carols: Jesus, lovely flower
DR14 -1.15 dB -19.18 dB 2:30 14-Lutosławski: Twenty Polish Christmas Carols: Hey la, hey la, shepherds there you Are
DR13 -1.63 dB -20.27 dB 1:38 15-Lutosławski: Twenty Polish Christmas Carols: What to do with This child?
DR13 -1.71 dB -21.52 dB 2:24 16-Lutosławski: Twenty Polish Christmas Carols: Hey, hey, lovely Lady Mary
DR14 -0.98 dB -18.60 dB 2:09 17-Lutosławski: Twenty Polish Christmas Carols: This Is our Lord’s birthday
DR12 -2.58 dB -20.26 dB 1:51 18-Lutosławski: Twenty Polish Christmas Carols: Shepherds, can you tell?
DR12 -2.34 dB -19.25 dB 2:18 19-Lutosławski: Twenty Polish Christmas Carols: Infant, so tiny
DR12 -2.09 dB -20.42 dB 2:17 20-Lutosławski: Twenty Polish Christmas Carols: Holy Lady Mary (Wandered through the world wide)
––––––––––––––––––––––––––––––––––––––––

Number of tracks: 20
Official DR value: DR13

Samplerate: 96000 Hz
Channels: 2
Bits per sample: 24
Bitrate: 2447 kbps
Codec: FLAC
================================================================================


Thanks to the Original customer!