Nicki Parrott - Can't Take My Eyes Off You (2011) [Japan 2016] SACD ISO + Hi-Res FLAC

Posted By: HDAtall
Nicki Parrott - Can't Take My Eyes Off You (2011) [Japan 2016] SACD ISO + Hi-Res FLAC

Nicki Parrott - Can't Take My Eyes Off You (2011) [Japan 2016]
SACD Rip | SACD ISO | DSD64 2.0 > 1-bit/2.8224 MHz | 58:13 minutes | Front/Rear Covers | 1,94 GB
or FLAC(converted with foobar2000 to tracks) 24bit/88,2 kHz | Front/Rear Covers | 1,27 GB

One of the most popular jazz musicians in Japan today, Nicki Parrott's latest release from Venus Records is a gorgeous collection of romantic standards. The star-studded band includes her frequent collaborators–Harry Allen on tenor sax, her sister Lisa on alto sax, John Di Martino on piano–and, this time, Chuck Redd on vibraphone who adds a distinctive tonal color to the collective sound.

Nicki Parrott is simply one of the best singers around these days. With hints of Peggy Lee lingering in her voice, Nicki has a wonderful jazz feeling to everything that she sings. In addition, she is a first tier bassist. Having the likes of John DiMartino, Harry Allen and Chuck Redd backing her is an embarrassment of riches. In another musical age, this lady would be a major star. In the world of good music she already is a star.

Tracklist:

01. Can't Take My Eyes Off You
02. Crazy
03. Detour Ahead
04. Downtown
05. I've Got A Crush On You
06. Let's Face The Music And Dance
07. Love Dance
08. Sugar Sweet
09. Somewhere Over The Rainbow
10. Say A Little Prayer
11. Skylark
12. You'll Never Get To Heaven
13. Best Things In Life Are Free

Produced, Mixed & Mastered by Tetsuo Hara. Engineered by Katherine Miller.
Recorded at Avatar Studio in New York on March 23 & 24, 2011.
Venus Hyper Magnum Sound Direct Mix. VENUS Japan # VHGD-122.

Personnel
Nicki Parrott - vocals, bass
John Di Martino - piano
Harry Allen - tenor saxophone
Lisa Parrott - baritone saxophone
Chuck Redd - vibraphone
Alvin Atkinson - drums

foobar2000 1.3.16 / Dynamic Range Meter 1.1.1

––––––––––––––––––––––––––––––––––––––––
Analyzed: NICKI PARROTT / Can't Take My Eyes Off You
––––––––––––––––––––––––––––––––––––––––

DR Peak RMS Duration Track
––––––––––––––––––––––––––––––––––––––––
DR7 -4.08 dB -12.52 dB 4:16 01-Can't Take My Eyes Off You
DR6 -4.83 dB -12.77 dB 3:36 02-Crazy
DR7 -4.92 dB -13.28 dB 5:30 03-Detour Ahead
DR7 -4.87 dB -12.91 dB 3:06 04-Downtown
DR7 -5.00 dB -13.33 dB 5:54 05-I've Got A Crush On You
DR7 -4.99 dB -12.68 dB 4:42 06-Let's Face The Music And Dance
DR6 -5.18 dB -13.21 dB 4:28 07-Love Dance
DR8 -3.70 dB -13.49 dB 4:16 08-Sugar Sweet
DR7 -5.16 dB -13.21 dB 5:30 09-Somewhere Over The Rainbow
DR7 -4.45 dB -12.99 dB 5:09 10-Say A Little Prayer
DR7 -4.83 dB -12.85 dB 4:56 11-Skylark
DR6 -4.88 dB -12.70 dB 3:35 12-You'll Never Get To Heaven
DR7 -4.16 dB -12.07 dB 3:16 13-Best Things In Life Are Free
––––––––––––––––––––––––––––––––––––––––

Number of tracks: 13
Official DR value: DR7

Samplerate: 2822400 Hz / PCM Samplerate: 88200 Hz
Channels: 2
Bits per sample: 1
Bitrate: 5645 kbps
Codec: DSD64


Thanks to jazzyman!
Uncompressed SACD ISO size > 2,36 GB
>