Tags
Language
Tags
March 2024
Su Mo Tu We Th Fr Sa
25 26 27 28 29 1 2
3 4 5 6 7 8 9
10 11 12 13 14 15 16
17 18 19 20 21 22 23
24 25 26 27 28 29 30
31 1 2 3 4 5 6
Attention❗ To save your time, in order to download anything on this site, you must be registered 👉 HERE. If you do not have a registration yet, it is better to do it right away. ✌

( • )( • ) ( ͡⚆ ͜ʖ ͡⚆ ) (‿ˠ‿)
SpicyMags.xyz

Nicki Parrott - Winter Wonderland (2012) [Japan 2015] SACD ISO + DSD64 + Hi-Res FLAC

Posted By: HDAtall
Nicki Parrott - Winter Wonderland (2012) [Japan 2015] SACD ISO + DSD64 + Hi-Res FLAC

Nicki Parrott - Fly Me To The Moon (2009) [Japan 2014]
SACD Rip | SACD ISO | DSD64 2.0 > 1-bit/2.8224 MHz | 62:07 minutes | Front/Rear Covers | 1,95 GB
or DSD64 Stereo (from SACD-ISO to Tracks.dsf) > 1-bit/2.8224 MHz | Front/Rear Covers | 1,74 GB
or FLAC (carefully converted & encoded to tracks) 24bit/88,2 kHz | Front/Rear Covers | 1,33 GB

Acclaimed bassist & vocalist Nicki Parrott is joined by sax player Houston Person, pianist John di Martino along with a host of competent musicians for this album dedicated to songs of the Winter season including several Christmas tunes. You'll find such songs as "Have Yourself a Merry Little Christmas", "Blue Christmas", "June In January", "I've Got My Love to Keep Me Warm", and of course, "Winter Wonderland".

Tracklist:

01. Have Yourself A Merry Little Christmas
02. Christmas In New Orleans
03. I'll Be Home For Christmas
04. The Christmas Song
05. Blackberry Winter
06. Blue Christmas
07. I've Got My Love To Keep Me Warm
08. Christmas Time Is Here
09. White Christmas
10. June In January
11. My Favorite Things
12. Winter Weather
13. Baby, It's Cold Outside
14. Winter Wonderland
15. What Are You Doing New Year's Eve?

Personnel
Nicki Parrott - vocals, bass
John Di Martino - piano
Houston Person - tenor saxophone
Lisa Parrott - baritone saxophone
Paul Meyers - guitar
Tim Horner - drums

Produced, Mixed & Mastered by Tetsuo Hara. Engineered by Katherine Miller.
Recorded on Auguust 24-25, 2012 at Avatar Studio in New York.
Venus Hyper Magnum Sound Direct Mix. VENUS Japan # VHGD-110.

foobar2000 1.6.16 / Dynamic Range Meter 1.1.1

––––––––––––––––––––––––––––––––––––––––
Analyzed: NICKI PARROTT / Winter Wonderland
––––––––––––––––––––––––––––––––––––––––

DR Peak RMS Duration Track
––––––––––––––––––––––––––––––––––––––––
DR7 -3.51 dB -11.90 dB 5:25 01-Have Yourself A Merry Little Christmas
DR7 -3.36 dB -11.70 dB 4:36 02-Christmas In New Orleans
DR7 -3.56 dB -13.18 dB 3:35 03-I'll Be Home For Christmas
DR7 -3.51 dB -12.02 dB 5:33 04-The Christmas Song
DR8 -3.78 dB -15.10 dB 4:12 05-Blackberry Winter
DR7 -3.57 dB -12.23 dB 3:51 06-Blue Christmas
DR7 -3.50 dB -11.32 dB 4:23 07-I've Got My Love To Keep Me Warm
DR6 -3.55 dB -11.76 dB 3:55 08-Christmas Time Is Here
DR7 -3.47 dB -11.58 dB 3:41 09-White Christmas
DR7 -3.46 dB -12.43 dB 4:05 10-June In January
DR7 -3.51 dB -11.98 dB 4:43 11-My Favorite Things
DR7 -3.49 dB -12.05 dB 3:24 12-Winter Weather
DR8 -3.61 dB -13.14 dB 3:53 13-Baby, It's Cold Outside
DR7 -3.48 dB -12.05 dB 3:28 14-Winter Wonderland
DR7 -3.56 dB -12.80 dB 3:23 15-What Are You Doing New Year's Eve?
––––––––––––––––––––––––––––––––––––––––

Number of tracks: 15
Official DR value: DR7

Samplerate: 2822400 Hz / PCM Samplerate: 176400 Hz
Channels: 2
Bits per sample: 1
Bitrate: 5645 kbps
Codec: DSD64


Thanks to jazzyman!
Uncompressed SACD ISO size > 2,49 GB
>