Tags
Language
Tags
July 2024
Su Mo Tu We Th Fr Sa
30 1 2 3 4 5 6
7 8 9 10 11 12 13
14 15 16 17 18 19 20
21 22 23 24 25 26 27
28 29 30 31 1 2 3

Octandre Ensemble - Christian Mason: Time - Space - Sound - Light (2024) [Official Digital Download 24/48]

Posted By: delpotro
Octandre Ensemble - Christian Mason: Time - Space - Sound - Light (2024) [Official Digital Download 24/48]

Octandre Ensemble - Christian Mason: Time - Space - Sound - Light (2024)
FLAC (tracks) 24-bit/48 kHz | Front Cover & Digital Booklet | Time - 67:44 minutes | 650 MB
Classical | Label: Winter & Winter, Official Digital Download

Time of year and day, light; warmth, coolness; wind, rain; breath of air, babbling of the stream; People and other beings going about their lives: a strangely unpredictable mix of expected and unexpected events that contribute to the precise conditions of the moment in which we find ourselves. The here and now conveys a special feeling and a unique sound identity. Mason enables us to connect with times, places, people and situations that go far beyond the here and now. Mason is one of the most idiosyncratic composers and sound artists of our time; his works convey contemplative sounds that open our innermost being. Awarded the Ernst von Siemens Music Foundation Composer Prize, the Mendelssohn Scholarship and the British Composer Award. He received his doctorate from King's College London under George Benjamin.

Tracklist:
01. A kingfisher dives into the sun…
02. …just as the sun is always…
03. I wandered for a while…
04. Remembered Radiance
05. Incandescence
06. Heaven’s Chimes are Slow
07. Bird learning to fly

foobar2000 1.4.1 / Dynamic Range Meter 1.1.1
log date: 2024-03-12 16:29:44

––––––––––––––––––––––––––––––––––––––––
Analyzed: Octandre Ensemble / Christian Mason: Time - Space - Sound - Light
––––––––––––––––––––––––––––––––––––––––

DR Peak RMS Duration Track
––––––––––––––––––––––––––––––––––––––––
DR17 -1.09 dB -24.09 dB 9:45 01-Mason: A Kingfisher Dives into the Sun…
DR18 -1.26 dB -26.10 dB 8:21 02-Mason: …Just as the Sun Is Always…
DR14 -1.25 dB -20.41 dB 12:36 03-Mason: I Wandered for a While…
DR16 -1.26 dB -24.57 dB 11:28 04-Mason: Remembered Radiance
DR16 -3.78 dB -26.08 dB 11:00 05-Mason: Incandescence
DR10 -1.24 dB -17.38 dB 7:16 06-Mason: Heaven's Chimes Are Slow
DR15 -2.48 dB -24.42 dB 7:19 07-Mason: Bird Learning to Fly
––––––––––––––––––––––––––––––––––––––––

Number of tracks: 7
Official DR value: DR15

Samplerate: 48000 Hz
Channels: 2
Bits per sample: 24
Bitrate: 1406 kbps
Codec: FLAC
================================================================================


Thanks to the Original customer!