Tags
Language
Tags

Parker Quartet & Kim Kashkashian - Kurtág: Six moments musicaux; Officium breve / Dvořák: String Quintet, Op. 97 (2021) [24/96]

Posted By: delpotro
Parker Quartet & Kim Kashkashian - Kurtág: Six moments musicaux; Officium breve / Dvořák: String Quintet, Op. 97 (2021) [24/96]

Parker Quartet & Kim Kashkashian - Kurtág: Six moments musicaux; Officium breve / Dvořák: String Quintet, Op. 97 (2021)
FLAC (tracks) 24-bit/96 kHz | Front Cover & Digital Booklet | Time - 63:27 minutes | 1,1 GB
Classical | Label: ECM Records, Official Digital Download

On their ECM New series debut, the Boston-based Parker Quartet, hailed by the Washington Post for “exceptional virtuosity and imaginative interpretation,” play music of György Kurtág and are joined by violist Kim Kashkashian, one of the quarter’s early mentors, to play Dvořák. In this powerful programme of contrasts, Dvořák’s outgoing String Quintet No. 3, composed in America in 1893, is framed by two of Kurtág’s concentrated, meticulously-shaped works – the Six Moments musicaux (2005) and the Officium breve in memoriam Andreae Szervánszky (1988/89). Throughout, the Parker Quartet’s feeling for colour and texture is in evidence. The quartet’s insights into Kurtág’s soundworld have been developed through extensive work with the Hungarian composer. The album was recorded at Zürich’s Radio DRS Studio.

Tracklist:
1. Six moments musicaux, Op. 44 : 1. Invocatio [un fragment] (01:30)
2. Six moments musicaux, Op. 44 : 2. Footfalls … mintha valaki jönne … (02:46)
3. Six moments musicaux, Op. 44 : 3. Capriccio (01:32)
4. Six moments musicaux, Op. 44 : 4. In memorian Gyoergy Sebeok (03:35)
5. Six moments musicaux, Op. 44 : 5. … rappel des oiseaux … [étude pour les harmoniques] (02:31)
6. Six moments musicaux, Op. 44 : 6. Les adieux [in Janáčeks Manier] (02:48)
7. String Quintet in E Flat Major, Op. 97, B. 180 : 1. Allegro non tanto (09:30)
8. String Quintet in E Flat Major, Op. 97, B. 180 : 2. Scherzo, Allegro vivace (05:58)
9. String Quintet in E Flat Major, Op. 97, B. 180 : 3. Larghetto (10:05)
10. String Quintet in E Flat Major, Op. 97, B. 180 : 4. Finale, Allegro giusto (08:34)
11. Officium breve in memoriam Andreae Szervánszky, Op. 28 : 1. Largo (00:25)
12. Officium breve in memoriam Andreae Szervánszky, Op. 28 : 2. Più andante (00:44)
13. Officium breve in memoriam Andreae Szervánszky, Op. 28 : 3. Sostenuto, quasi giusto (00:40)
14. Officium breve in memoriam Andreae Szervánszky, Op. 28 : 4. Grave, molto sostenuto (00:32)
15. Officium breve in memoriam Andreae Szervánszky, Op. 28 : 5. (Fantasie über die Harmonien des Webern-Kanons) Presto (00:42)
16. Officium breve in memoriam Andreae Szervánszky, Op. 28 : 6. (Canon a 4) Molto agitato (00:20)
17. Officium breve in memoriam Andreae Szervánszky, Op. 28 : 7. Canon a 2 (frei, nach Op. 31/VI von Webern) Sehr fliessend (00:39)
18. Officium breve in memoriam Andreae Szervánszky, Op. 28 : 8. Lento (00:38)
19. Officium breve in memoriam Andreae Szervánszky, Op. 28 : 9. Largo (00:56)
20. Officium breve in memoriam Andreae Szervánszky, Op. 28 : 10. [Webern: Kanon a 4 (Op. 31/VI)] (02:21)
21. Officium breve in memoriam Andreae Szervánszky, Op. 28 : 11. Sostenuto (02:39)
22. Officium breve in memoriam Andreae Szervánszky, Op. 28 : 12. Sostenuto, quasi giusto (00:41)
23. Officium breve in memoriam Andreae Szervánszky, Op. 28 : 13. Sostenuto, con slancio (01:06)
24. Officium breve in memoriam Andreae Szervánszky, Op. 28 : 14. Disperato, vivo (00:48)
25. Officium breve in memoriam Andreae Szervánszky, Op. 28 : 15. Arioso interrotto (di Endre Szervánszky) Larghetto (01:14)

foobar2000 1.4.1 / Dynamic Range Meter 1.1.1
log date: 2021-10-22 13:09:46

––––––––––––––––––––––––––––––––––––––––
Analyzed: Parker Quartet / Kurtág: Six moments musicaux; Officium breve / Dvořák: String Quintet, Op. 97
––––––––––––––––––––––––––––––––––––––––

DR Peak RMS Duration Track
––––––––––––––––––––––––––––––––––––––––
DR15 -0.50 dB -21.77 dB 1:31 01-1. Invocatio [un fragment]
DR15 -6.60 dB -33.58 dB 2:46 02-2. Footfalls … mintha valaki jönne …
DR14 -6.75 dB -27.31 dB 1:33 03-3. Capriccio
DR14 -6.25 dB -26.54 dB 3:35 04-4. In memorian Gyoergy Sebeok
DR17 -13.07 dB -39.78 dB 2:31 05-5. … rappel des oiseaux … [étude pour les harmoniques]
DR17 -5.12 dB -30.67 dB 2:49 06-6. Les adieux [in Janáčeks Manier]
DR16 -2.01 dB -23.01 dB 9:30 07-1. Allegro non tanto
DR15 -3.37 dB -25.84 dB 5:59 08-2. Scherzo, Allegro vivace
DR16 -4.62 dB -27.69 dB 10:06 09-3. Larghetto
DR16 -1.93 dB -22.86 dB 8:35 10-4. Finale, Allegro giusto
DR6 -24.53 dB -38.40 dB 0:25 11-1. Largo
DR10 -23.77 dB -39.96 dB 0:44 12-2. Più andante
DR8 -12.25 dB -31.18 dB 0:41 13-3. Sostenuto, quasi giusto
DR9 -0.50 dB -21.68 dB 0:33 14-4. Grave, molto sostenuto
DR16 -2.48 dB -27.74 dB 0:42 15-5. (Fantasie über die Harmonien des Webern-Kanons) Presto
DR11 -12.42 dB -33.07 dB 0:21 16-6. (Canon a 4) Molto agitato
DR12 -6.94 dB -30.22 dB 0:39 17-7. Canon a 2 (frei, nach Op. 31/VI von Webern) Sehr fliessend
DR13 -7.24 dB -30.09 dB 0:39 18-8. Lento
DR10 -18.35 dB -35.61 dB 0:57 19-9. Largo
DR15 -2.61 dB -26.39 dB 2:21 20-10. [Webern: Kanon a 4 (Op. 31/VI)]
DR11 -4.82 dB -20.85 dB 2:39 21-11. Sostenuto
DR10 -13.57 dB -32.27 dB 0:41 22-12. Sostenuto, quasi giusto
DR8 -1.35 dB -28.01 dB 1:07 23-13. Sostenuto, con slancio
DR13 -0.50 dB -16.93 dB 0:48 24-14. Disperato, vivo
DR11 -15.00 dB -31.83 dB 1:15 25-15. Arioso interrotto (di Endre Szervánszky) Larghetto
––––––––––––––––––––––––––––––––––––––––

Number of tracks: 25
Official DR value: DR13

Samplerate: 96000 Hz
Channels: 2
Bits per sample: 24
Bitrate: 2353 kbps
Codec: FLAC
================================================================================


Thanks to the Original customer!