Tags
Language
Tags

PaTRAM Institute Male Choir & Vladimir Gorbik - More Honourable Than the Cherubim (2021) [Official Digital Download 24/192]

Posted By: delpotro
PaTRAM Institute Male Choir & Vladimir Gorbik - More Honourable Than the Cherubim (2021) [Official Digital Download 24/192]

PaTRAM Institute Male Choir & Vladimir Gorbik - More Honourable Than the Cherubim (2021)
FLAC (tracks) 24-bit/192 kHz | Front Cover & Digital Booklet | Time - 71:36 minutes | 2,13 GB
Classical, Sacred, Choral | Label: Chandos Records, Official Digital Download

The Patriarch Tikhon Russian-American Music Institute strives to present Russian Orthodox choral music in its highest possible form, uniting deep spirituality, a profound love for the rich traditions of Orthodox Christian singing, and an uncompromising standard of musical professionalism rooted in the great traditions of Russian choral composers. The 2019 PaTRAM Institute Recording Project was to record the sacred works of Alexander Gretchaninoff, but as the project was in development, His Eminence Metropolitan Hilarion (Kapral), First Hierarch of the Russian Orthodox Church outside Russia, had granted his special permission and blessing to allow the 725-year-old wonderworking Kursk Root Icon of the Mother of God of the Sign to travel with the PaTRAM Choir to the recording location in Saratov, Russia. The timing of the recording also coincided with the Feast of the Dormition of the Mother of God. In honour of this event, the repertoire was changed to a compendium of sacred masterpieces by various composers, glorifying the Most Holy Lady Theotokos. The album brings together singers from five countries, including an unprecedented nine octavists, to form the fifty-six-member international PaTRAM Institute Male Choir.

Tracklist:
1. PaTRAM Institute Male Choir & Vladimir Gorbik – It Is Truly Meet (02:53)
2. PaTRAM Institute Male Choir & Vladimir Gorbik – To the Most Holy Sovereign Lady, Op. 43: No. 4, O Theotokos, We Shall Never Cease Proclaiming (03:13)
3. PaTRAM Institute Male Choir & Vladimir Gorbik – Liturgy of St. John Chrysostom No. 2, Op. 29: Sacred Concerto "Let Us Hasten with Fervour" (Arr. for Tenor & Bass Choir) (05:56)
4. PaTRAM Institute Male Choir & Vladimir Gorbik – O Thou Joy of All the Sorrowful (Arr. M. Popov-Platonov for Tenor & Bass Choir) (03:06)
5. Mikhail Davydov, PaTRAM Institute Male Choir & Vladimir Gorbik – To the Most Holy Sovereign Lady, Op. 43: No. 1, Let Us Pray to the Most Holy Theotokos (03:55)
6. PaTRAM Institute Male Choir & Vladimir Gorbik – To the Most Holy Sovereign Lady, Op. 43: No. 6, O Fervant Intercessor (03:59)
7. PaTRAM Institute Male Choir & Vladimir Gorbik – O Mother of God (Arr. for Tenor & Bass Choir) (08:51)
8. PaTRAM Institute Male Choir & Vladimir Gorbik – Troparion to the Donskoy Icon of the Theotokos (03:00)
9. PaTRAM Institute Male Choir & Vladimir Gorbik – Weep Not for Me, O Mother (03:41)
10. PaTRAM Institute Male Choir & Vladimir Gorbik – We Have No Other Help (05:38)
11. PaTRAM Institute Male Choir & Vladimir Gorbik – At Thy Deathless Dormition (08:44)
12. PaTRAM Institute Male Choir & Vladimir Gorbik – Oh, How Sweet Is Thy Voice (02:10)
13. PaTRAM Institute Male Choir & Vladimir Gorbik – It Is Truly Meet (Arr. for Tenor & Bass Choir) (02:31)
14. PaTRAM Institute Male Choir & Vladimir Gorbik – Exaposteilarion for the Kursk Root Icon of the Theotokos (Arr. A.B. Ledkovsky for Tenor & Bass Choir) (02:30)
15. Mikhail Davydov, PaTRAM Institute Male Choir & Vladimir Gorbik – Russian Orthodox Service, Op. 40 No. 2 (03:56)
16. PaTRAM Institute Male Choir & Vladimir Gorbik – To the Most Holy Sovereign Lady, Op. 43: No. 5, Beneath Thy Compassion (03:16)
17. PaTRAM Institute Male Choir & Vladimir Gorbik – Liturgy No. 1: It Is Truly Meet (01:52)
18. PaTRAM Institute Male Choir & Vladimir Gorbik – The Angel Cried Out (02:14)

foobar2000 1.4.1 / Dynamic Range Meter 1.1.1
log date: 2021-07-27 15:18:39

––––––––––––––––––––––––––––––––––––––––
Analyzed: PaTRAM Institute Male Choir & Vladimir Gorbik / More Honourable Than the Cherubim
––––––––––––––––––––––––––––––––––––––––

DR Peak RMS Duration Track
––––––––––––––––––––––––––––––––––––––––
DR12 -0.92 dB -17.93 dB 2:54 01-Dinev: It Is Truly Meet
DR13 -0.82 dB -19.16 dB 3:13 02-Chesnokov: To the Most Holy Sovereign Lady, Op. 43: No. 4, O Theotokos, We Shall Never Cease Proclaiming
DR12 -1.19 dB -18.41 dB 5:57 03-Gretchaninov: Liturgy of St. John Chrysostom No. 2, Op. 29: Sacred Concerto "Let Us Hasten with Fervour" (Arr. for Tenor & Bass Choir)
DR12 -1.30 dB -19.46 dB 3:07 04-O Thou Joy of All the Sorrowful (Arr. M. Popov-Platonov for Tenor & Bass Choir)
DR12 -1.76 dB -20.75 dB 3:56 05-Chesnokov: To the Most Holy Sovereign Lady, Op. 43: No. 1, Let Us Pray to the Most Holy Theotokos
DR12 -2.12 dB -19.92 dB 4:00 06-Chesnokov: To the Most Holy Sovereign Lady, Op. 43: No. 6, O Fervant Intercessor
DR13 -0.90 dB -20.03 dB 8:52 07-Rachmaninoff: O Mother of God (Arr. for Tenor & Bass Choir)
DR13 -1.08 dB -19.43 dB 3:01 08-Trubachev: Troparion to the Donskoy Icon of the Theotokos
DR14 -1.04 dB -21.83 dB 3:42 09-Ivanov: Weep Not for Me, O Mother
DR14 -1.53 dB -22.60 dB 5:38 10-Ledkovsky: We Have No Other Help
DR13 -1.00 dB -19.68 dB 8:44 11-Degtyaryov: At Thy Deathless Dormition
DR11 -7.09 dB -22.46 dB 2:11 12-Trubachev: Oh, How Sweet Is Thy Voice
DR11 -1.75 dB -20.75 dB 2:32 13-Alekseyevich: It Is Truly Meet (Arr. for Tenor & Bass Choir)
DR12 -1.43 dB -18.30 dB 2:30 14-: Exaposteilarion for the Kursk Root Icon of the Theotokos (Arr. A.B. Ledkovsky for Tenor & Bass Choir)
DR13 -0.80 dB -20.24 dB 3:57 15-Chesnokov: Russian Orthodox Service, Op. 40 No. 2
DR13 -0.94 dB -19.30 dB 3:17 16-Chesnokov: To the Most Holy Sovereign Lady, Op. 43: No. 5, Beneath Thy Compassion
DR12 -1.14 dB -17.69 dB 1:53 17-Shvedov: Liturgy No. 1: It Is Truly Meet
DR11 -1.15 dB -17.06 dB 2:15 18-Uvarov: The Angel Cried Out
––––––––––––––––––––––––––––––––––––––––

Number of tracks: 18
Official DR value: DR12

Samplerate: 192000 Hz
Channels: 2
Bits per sample: 24
Bitrate: 4329 kbps
Codec: FLAC
================================================================================


Thanks to the Original customer!