Tags
Language
Tags
November 2022
Su Mo Tu We Th Fr Sa
30 31 1 2 3 4 5
6 7 8 9 10 11 12
13 14 15 16 17 18 19
20 21 22 23 24 25 26
27 28 29 30 1 2 3

The Police - SACD Reissue Collection (1978-1985) [Remasters 2003] PS3 ISO + Hi-Res FLAC / RE-UP

Posted By: HDAtall
The Police - SACD Reissue Collection (1978-1985) [Remasters 2003] PS3 ISO + Hi-Res FLAC / RE-UP

The Police - SACD Reissue Collection (1978-1985) [Remasters 2003]
PS3 Rip | SACD-ISO | DSD64 2.0 > 1-bit/2.8224 MHz | Scans included | 8,67 GB
FLAC (tracks) 24 bit/88,2 kHz | 2.0 Stereo | 347:29 minutes | Scans included | 7,38 GB
Includes 6 albums (5 Studio + 1 Live) | Features 2003 Remasters

The Police were an English rock band formed in London in 1977. For the vast majority of their history, the band consisted of Sting (lead vocals, bass), Andy Summers (guitar) and Stewart Copeland (drums). The Police became globally popular in the late 1970s and are generally regarded as one of the first New Wave groups to achieve mainstream success, playing a style of rock that was influenced by punk, reggae, and jazz.

Nominally, the Police were punk rock, but that's only in the loosest sense of the term. The trio's nervous, reggae-injected pop/rock was punky, but it wasn't necessarily punk. All three members were considerably more technically proficient than the average punk or new wave band. Andy Summers had a precise guitar attack that created dense, interlocking waves of sounds and effects. Stewart Copeland could play polyrhythms effortlessly. And Sting, with his high, keening voice, was capable of constructing infectiously catchy pop songs. While they weren't punk, the Police certainly demonstrated that the punk spirit could have a future in pop music. As their career progressed, the Police grew considerably more adventurous, experimenting with jazz and various world musics. All the while, the band's tight delivery and mastery of the pop single kept their audience increasing, and by 1983, they were the most popular rock & roll band in the world. Though they were at the height of their fame, internal tensions caused the band to splinter apart in 1984, with Sting picking up the majority of the band's audience to become an international superstar…


The Police - SACD Reissue Collection (1978-1985) [Remasters 2003] PS3 ISO + Hi-Res FLAC / RE-UP

The Police - Outlandos d'Amour (1978) [SACD 2003]
PS3 Rip | SACD-ISO | DSD64 2.0 > 1-bit/2.8224 MHz | Full Scans included | 1,17 GB (1,54 GB)
SACD-ISO PS3 Rip to FLAC 2.0 | 24 bit / 88,2 kHz | 38:11 minutes | Scans included | 838 MB

Tracklist:

01. Next To You
02. So Lonely
03. Roxanne
04. Hole In My Life
05. Peanuts
06. Can't Stand Losing You
07. Truth Hits Everybody
08. Born In The 50's
09. Be My Girl Sally
10. Masoko Tanga

foobar2000 1.1.15 / Dynamic Range Meter 1.1.1

––––––––––––––––––––––––––––––––––––––––
Analyzed: The Police / Outlandos d'Amour
––––––––––––––––––––––––––––––––––––––––

DR Peak RMS Duration Track
––––––––––––––––––––––––––––––––––––––––
DR12 -2.75 dB -16.84 dB 2:50 01-Next To You
DR12 -2.73 dB -18.18 dB 4:48 02-So Lonely
DR12 -3.52 dB -18.76 dB 3:11 03-Roxanne
DR14 -2.59 dB -19.09 dB 4:48 04-Hole In My Life
DR11 -4.20 dB -16.95 dB 3:54 05-Peanuts
DR12 -2.37 dB -16.66 dB 2:58 06-Can't Stand Losing You
DR11 -3.06 dB -16.29 dB 2:55 07-Truth Hits Everybody
DR13 -2.38 dB -16.97 dB 3:42 08-Born In The 50's
DR12 -2.79 dB -19.54 dB 3:23 09-Be My Girl Sally
DR14 -2.77 dB -18.95 dB 5:42 10-Masoko Tanga
––––––––––––––––––––––––––––––––––––––––

Number of tracks: 10
Official DR value: DR12

Samplerate: 2822400 Hz / PCM Samplerate: 88200 Hz
Channels: 2
Bits per sample: 24
Bitrate: 5645 kbps
Codec: DSD64



The Police - SACD Reissue Collection (1978-1985) [Remasters 2003] PS3 ISO + Hi-Res FLAC / RE-UP

The Police - Regatta de Blanc (1979) [SACD 2003]
PS3 Rip | SACD-ISO | DSD64 2.0 > 1-bit/2.8224 MHz | Full Scans included | 1,27 GB (1,68 GB)
SACD-ISO PS3 Rip to FLAC 2.0 | 24 bit / 88,2 kHz | 41:35 minutes | Scans included | 941 MB

Tracklist:

01. Message In A Bottle
02. Reggatta De Blanc
03. It's Alright For You
04. Bring On The Night
05. Deathwish
06. Walking On The Moon
07. On Any Other Day
08. The Bed's Too Big Without You
09. Contact
10. Does Everyone Stare
11. No Time This Time

foobar2000 1.1.15 / Dynamic Range Meter 1.1.1

––––––––––––––––––––––––––––––––––––––––
Analyzed: The Police / Reggatta de Blanc
––––––––––––––––––––––––––––––––––––––––

DR Peak RMS Duration Track
––––––––––––––––––––––––––––––––––––––––
DR13 -3.40 dB -18.39 dB 4:50 01-Message In A Bottle
DR13 -2.85 dB -19.08 dB 3:05 02-Reggatta De Blanc
DR12 -4.13 dB -17.62 dB 3:12 03-It's Alright For You
DR15 -2.82 dB -20.41 dB 4:15 04-Bring On The Night
DR14 -3.79 dB -19.90 dB 4:12 05-Deathwish
DR15 -3.30 dB -21.95 dB 5:00 06-Walking On The Moon
DR12 -4.54 dB -19.79 dB 2:56 07-On Any Other Day
DR16 -2.55 dB -20.84 dB 4:24 08-The Bed's Too Big Without You
DR12 -3.51 dB -17.58 dB 2:37 09-Contact
DR14 -2.79 dB -19.65 dB 3:47 10-Does Everyone Stare
DR11 -3.15 dB -16.20 dB 3:17 11-No Time This Time
––––––––––––––––––––––––––––––––––––––––

Number of tracks: 11
Official DR value: DR13

Samplerate: 2822400 Hz / PCM Samplerate: 88200 Hz
Channels: 2
Bits per sample: 24
Bitrate: 5645 kbps
Codec: DSD64



The Police - SACD Reissue Collection (1978-1985) [Remasters 2003] PS3 ISO + Hi-Res FLAC / RE-UP

The Police - Zenyatta Mondatta (1980) [SACD 2003]
PS3 Rip | SACD-ISO | DSD64 2.0 > 1-bit/2.8224 MHz | Full Scans included | 1,15 GB (1,53 GB)
SACD-ISO PS3 Rip to FLAC 2.0 | 24 bit / 88,2 kHz | 38:08 minutes | Scans included | 825 MB

Tracklist:

01. Don't Stand So Close To Me
02. Driven To Tears
03. When The World Is Running Down, You Make The Best Of What's Still Around
04. Canary In A Coalmine
05. Voices Inside My Head
06. Bombs Away
07. De Do Do Do, De Da Da Da
08. Behind My Camel
09. Man In A Suitcase
10. Shadows In The Rain
11. The Other Way Of Stopping

foobar2000 1.1.15 / Dynamic Range Meter 1.1.1

––––––––––––––––––––––––––––––––––––––––
Analyzed: The Police / Zenyatta Mondatta
––––––––––––––––––––––––––––––––––––––––

DR Peak RMS Duration Track
––––––––––––––––––––––––––––––––––––––––
DR15 -4.63 dB -22.10 dB 4:02 01-Don't Stand So Close To Me
DR15 -2.53 dB -18.74 dB 3:21 02-Driven To Tears
DR15 -2.51 dB -18.85 dB 3:37 03-When The World Is Running Down, You Make The Best Of What's Still Around
DR13 -3.38 dB -18.48 dB 2:26 04-Canary In A Coalmine
DR15 -2.76 dB -20.51 dB 3:52 05-Voices Inside My Head
DR13 -2.85 dB -17.93 dB 3:08 06-Bombs Away
DR13 -2.56 dB -18.00 dB 4:07 07-De Do Do Do, De Da Da Da
DR16 -3.56 dB -21.88 dB 2:53 08-Behind My Camel
DR15 -2.54 dB -19.22 dB 2:18 09-Man In A Suitcase
DR16 -2.65 dB -20.67 dB 5:03 10-Shadows In The Rain
DR15 -2.69 dB -18.93 dB 3:22 11-The Other Way Of Stopping
––––––––––––––––––––––––––––––––––––––––

Number of tracks: 11
Official DR value: DR15

Samplerate: 2822400 Hz / PCM Samplerate: 88200 Hz
Channels: 2
Bits per sample: 24
Bitrate: 5645 kbps
Codec: DSD64



The Police - SACD Reissue Collection (1978-1985) [Remasters 2003] PS3 ISO + Hi-Res FLAC / RE-UP

The Police - Ghost In The Machine (1981) [SACD 2003]
PS3 Rip | SACD-ISO | DSD64 2.0 > 1-bit/2.8224 MHz | Full Scans included | 1,26 GB (1,64 GB)
SACD-ISO PS3 Rip to FLAC 2.0 | 24 bit / 88,2 kHz | 41:07 minutes | Scans included | 866 MB

Tracklist:

01. Spirits In The Material World
02. Every Little Thing She Does Is Magic
03. Invisible Sun
04. Hungry For You
05. Demolition Man
06. Too Much Information
07. Rehumanize Yourself
08. One World (Not Three)
09. Omegaman
10. Secret Journey
11. Darkness

foobar2000 1.1.15 / Dynamic Range Meter 1.1.1

––––––––––––––––––––––––––––––––––––––––
Analyzed: The Police / Ghost In The Machine
––––––––––––––––––––––––––––––––––––––––

DR Peak RMS Duration Track
––––––––––––––––––––––––––––––––––––––––
DR14 -3.44 dB -20.29 dB 2:59 01-Spirits In The Material World
DR13 -3.42 dB -19.41 dB 4:21 02-Every Little Thing She Does Is Magic
DR13 -2.58 dB -18.21 dB 3:44 03-Invisible Sun
DR14 -2.88 dB -18.28 dB 2:53 04-Hungry For You
DR14 -2.54 dB -17.87 dB 5:57 05-Demolition Man
DR15 -3.28 dB -20.06 dB 3:43 06-Too Much Information
DR13 -3.66 dB -17.42 dB 3:10 07-Rehumanize Yourself
DR15 -2.73 dB -20.15 dB 4:47 08-One World (Not Three)
DR12 -3.45 dB -17.78 dB 2:48 09-Omegaman
DR14 -2.69 dB -20.15 dB 3:34 10-Secret Journey
DR13 -4.83 dB -19.99 dB 3:12 11-Darkness
––––––––––––––––––––––––––––––––––––––––

Number of tracks: 11
Official DR value: DR14

Samplerate: 2822400 Hz / PCM Samplerate: 88200 Hz
Channels: 2
Bits per sample: 24
Bitrate: 5645 kbps
Codec: DSD64



The Police - SACD Reissue Collection (1978-1985) [Remasters 2003] PS3 ISO + Hi-Res FLAC / RE-UP

The Police - Synchronicity (1983) [SACD 2003]
PS3 Rip | SACD-ISO | DSD64 2.0 > 1-bit/2.8224 MHz | Full Scans included | 1,34 GB (1,78 GB)
SACD-ISO PS3 Rip to FLAC 2.0 | 24 bit / 88,2 kHz | 44:32 minutes | Scans included | 932 MB

Tracklist:

01. Synchronicity I
02. Walking In Your Footsteps
03. Oh My God
04. Mother
05. Miss Gradenko
06. Synchronicity II
07. Every Breath You Take
08. King Of Pain
09. Wrapped Around Your Finger
10. Tea In The Sahara
11. Murder By Numbers

foobar2000 1.1.15 / Dynamic Range Meter 1.1.1

––––––––––––––––––––––––––––––––––––––––
Analyzed: The Police / Synchronicity
––––––––––––––––––––––––––––––––––––––––

DR Peak RMS Duration Track
––––––––––––––––––––––––––––––––––––––––
DR15 -3.55 dB -20.31 dB 3:23 01-Synchronicity I
DR15 -4.04 dB -22.94 dB 3:37 02-Walking In Your Footsteps
DR17 -3.32 dB -21.79 dB 4:02 03-Oh My God
DR12 -5.57 dB -19.98 dB 3:06 04-Mother
DR16 -3.42 dB -20.85 dB 2:00 05-Miss Gradenko
DR14 -2.29 dB -18.91 dB 5:02 06-Synchronicity II
DR15 -2.18 dB -19.09 dB 4:14 07-Every Breath You Take
DR15 -3.11 dB -21.30 dB 4:59 08-King Of Pain
DR15 -2.48 dB -21.41 dB 5:14 09-Wrapped Around Your Finger
DR17 -3.53 dB -24.27 dB 4:19 10-Tea In The Sahara
DR17 -2.59 dB -22.16 dB 4:36 11-Murder By Numbers
––––––––––––––––––––––––––––––––––––––––

Number of tracks: 11
Official DR value: DR15

Samplerate: 2822400 Hz / PCM Samplerate: 88200 Hz
Channels: 2
Bits per sample: 24
Bitrate: 5645 kbps
Codec: DSD64



The Police - SACD Reissue Collection (1978-1985) [Remasters 2003] PS3 ISO + Hi-Res FLAC / RE-UP

The Police - Live! (1995) [SACD 2003]
PS3 Rip | SACD-ISO | DST64 2.0 > 1-bit/2.8224 MHz | Full Scans included | 2,48 GB (2,35 GB)
SACD-ISO PS3 Rip to FLAC 2.0 | 24 bit / 88,2 kHz | 143:56 minutes | Scans included | 3,08 GB

Tracklist:

01. Next To You
02. So Lonely
03. Truth Hits Everybody
04. Walking On The Moon
05. Hole In My Life
06. Fall Out
07. Bring On The Night
08. Message In A Bottle
09. The Bed's Too Big Without You
10. Peanuts
11. Roxanne
12. Can't Stand Losing You
13. Landlord
14. Born In The 50's
15. Be My Girl Sally
16. Synchronicity I
17. Synchronicity II
18. Walking In Your Footsteps
19. Message In A Bottle
20. O My God
21. De Do Do Do, De Da Da Da
22. Wrapped Around Your Finger
23. Tea In The Sahara
24. Spirits In The Material World
25. King Of Pain
26. Don't Stand So Close To Me
27. Every Breath You Take
28. Roxanne
29. Can't Stand Losing You
30. So Lonely

foobar2000 1.1.15 / Dynamic Range Meter 1.1.1

––––––––––––––––––––––––––––––––––––––––
Analyzed: The Police / Live!
––––––––––––––––––––––––––––––––––––––––

DR Peak RMS Duration Track
––––––––––––––––––––––––––––––––––––––––
DR7 -6.19 dB -16.34 dB 2:57 01-Next To You (1979)
DR8 -5.61 dB -17.25 dB 7:33 02-So Lonely (1979)
DR9 -5.59 dB -16.36 dB 2:34 03-Truth Hits Everybody (1979)
DR11 -5.53 dB -18.79 dB 5:00 04-Walking On The Moon (1979)
DR10 -5.42 dB -17.95 dB 4:08 05-Hole In My Life (1979)
DR8 -5.58 dB -15.73 dB 2:47 06-Fall Out (1979)
DR11 -5.75 dB -19.47 dB 5:17 07-Bring On The Night (1979)
DR10 -5.56 dB -17.96 dB 4:27 08-Message In A Bottle (1979)
DR10 -5.35 dB -18.49 dB 8:53 09-The Bed's Too Big Without You (1979)
DR8 -5.39 dB -15.07 dB 3:07 10-Peanuts (1979)
DR8 -5.27 dB -16.85 dB 4:43 11-Roxanne (1979)
DR8 -5.16 dB -15.75 dB 7:55 12-Can't Stand Losing You (1979)
DR8 -5.55 dB -14.84 dB 2:27 13-Landlord (1979)
DR9 -5.54 dB -16.92 dB 4:18 14-Born In The 50's (1979)
DR8 -5.69 dB -17.19 dB 4:41 15-Be My Girl Sally (1979)
DR9 -3.96 dB -14.62 dB 2:53 16-Synchronicity I (1983)
DR10 -4.40 dB -15.53 dB 4:44 17-Synchronicity II (1983)
DR12 -5.05 dB -19.86 dB 4:55 18-Walking In Your Footsteps (1983)
DR10 -4.04 dB -16.20 dB 4:36 19-Message In A Bottle (1983)
DR11 -4.25 dB -16.90 dB 3:36 20-O My God (1983)
DR9 -4.75 dB -14.82 dB 4:32 21-De Do Do Do, De Da Da Da (1983)
DR9 -4.55 dB -16.80 dB 5:21 22-Wrapped Around Your Finger (1983)
DR12 -4.96 dB -19.78 dB 4:54 23-Tea In The Sahara (1983)
DR10 -4.98 dB -17.42 dB 2:57 24-Spirits In The Material World (1983)
DR10 -4.00 dB -16.40 dB 5:53 25-King Of Pain (1983)
DR11 -4.88 dB -17.05 dB 3:46 26-Don't Stand So Close To Me (1983)
DR9 -4.89 dB -15.37 dB 4:37 27-Every Breath You Take (1983)
DR11 -4.45 dB -18.89 dB 6:10 28-Roxanne (1983)
DR9 -5.25 dB -16.13 dB 6:48 29-Can't Stand Losing You (1983)
DR9 -6.01 dB -17.42 dB 7:25 30-So Lonely (1983)
––––––––––––––––––––––––––––––––––––––––

Number of tracks: 30
Official DR value: DR9

Samplerate: 2822400 Hz / PCM Samplerate: 88200 Hz
Channels: 2
Bits per sample: 24
Bitrate: 5645 kbps
Codec: DST64


Thanks to PS³SACD/bambasm/ManWhoCan!

The Police - Every Breath You Take: The Classics (2.0 & 5.1)

>