Queen - Greatest Hits (1981) [Japanese Limited SHM-SACD 2013] PS3 ISO + Hi-Res FLAC

Posted By: HDAtall
Queen - Greatest Hits (1981) [Japanese Limited SHM-SACD 2013] PS3 ISO + Hi-Res FLAC

Queen - Greatest Hits (1981) [Japanese Limited SHM-SACD 2013]
PS3 Rip | SACD ISO | DSD64 2.0 > 1-bit/2.8224 MHz | 63:18 minutes | Scans included | 2,02 GB
or FLAC (converted with foobar2000 to tracks) 24bit/88,2 kHz | Full Scans included | 1,38 GB
Based on Digital Remaster 2011 / Universal Japan # UIGY-9532

They may not have started out that way, but by 1981 Queen definitely was perceived as a singles act. This record gathers their biggest US/UK hits, 1973-1981, including the collaboration with David Bowie, "Under Pressure," which was not on the reissue from EMI. Not to be confused with the 1992 Hollywood Records (61625) release also called Greatest Hits.

Tracklist:

01. Bohemian Rhapsody
02. Another One Bites The Dust
03. Killer Queen
04. Fat Bottomed Girls [Single Version]
05. Bicycle Race
06. You're My Best Friend
07. Don't Stop Me Now
08. Save Me
09. Crazy Little Thing Called Love
10. Somebody To Love
11. Now I'm Here
12. Good Old-Fashioned Lover Boy
13. Play The Game
14. Flash [Single Version]
15. Seven Seas Of Rhye
16. We Will Rock You
17. We Are The Champions
18. Teo Torriatte (Let Us Cling Together) [HD Mix]

This 2011 version has been meticulously re-created using the finest modern analogue and digital technology from the original first-generation master mixes.
All the Digital processing was carried out at PCM 24bit/96kHz and then converted to DSD for SACD.
Mastered by Bob Ludwig, Gateway Mastering Studios, Portland, ME. SA-CD Authoring: Gus Skinas.

foobar2000 1.5.1 / Dynamic Range Meter 1.1.1

––––––––––––––––––––––––––––––––––––––––
Analyzed: Queen / Greatest Hits
––––––––––––––––––––––––––––––––––––––––

DR Peak RMS Duration Track
––––––––––––––––––––––––––––––––––––––––
DR8 -6.05 dB -18.55 dB 5:55 01-Bohemian Rhapsody
DR9 -5.91 dB -16.35 dB 3:35 02-Another One Bites The Dust
DR7 -6.61 dB -16.12 dB 3:01 03-Killer Queen
DR8 -6.02 dB -17.61 dB 3:23 04-Fat Bottomed Girls (Single Version)
DR7 -5.95 dB -15.43 dB 3:01 05-Bicycle Race
DR9 -6.59 dB -17.16 dB 2:53 06-You're My Best Friend
DR8 -5.94 dB -15.73 dB 3:30 07-Don't Stop Me Now
DR7 -5.98 dB -16.27 dB 3:48 08-Save Me
DR7 -5.96 dB -15.25 dB 2:45 09-Crazy Little Thing Called Love
DR8 -6.13 dB -16.76 dB 4:57 10-Somebody To Love
DR7 -6.10 dB -16.12 dB 4:15 11-Now I'm Here
DR7 -6.12 dB -16.32 dB 2:53 12-Good Old-Fashioned Lover Boy
DR7 -6.05 dB -15.03 dB 3:33 13-Play The Game
DR9 -6.05 dB -18.19 dB 2:48 14-Flash (Single Version)
DR7 -6.12 dB -15.13 dB 2:48 15-Seven Seas Of Rhye
DR7 -6.13 dB -15.66 dB 2:02 16-We Will Rock You
DR6 -6.14 dB -15.80 dB 3:03 17-We Are The Champions
DR8 -6.05 dB -17.85 dB 5:07 18-Teo Torriatte (Let Us Cling Together) (HD Mix)
––––––––––––––––––––––––––––––––––––––––

Number of tracks: 18
Official DR value: DR8

Samplerate: 2822400 Hz / PCM Samplerate: 88200 Hz
Channels: 2
Bits per sample: 24
Bitrate: 5645 kbps
Codec: DSD64


Thanks to PS³SACD!
Uncompressed SACD ISO size > 2,53 GB
>