Tags
Language
Tags
June 2024
Su Mo Tu We Th Fr Sa
26 27 28 29 30 31 1
2 3 4 5 6 7 8
9 10 11 12 13 14 15
16 17 18 19 20 21 22
23 24 25 26 27 28 29
30 1 2 3 4 5 6

Ravi Coltrane - Mad 6 (2002) [Japan] SACD ISO + Hi-Res FLAC

Posted By: HDAtall
Ravi Coltrane - Mad 6 (2002) [Japan] SACD ISO + Hi-Res FLAC

Ravi Coltrane - Mad 6 (2002) [Japan]
SACD Rip | SACD ISO | DSD64 2.0 > 1-bit/2.8224 MHz | 50:44 minutes | Front/Rear Covers | 1,56 GB
or FLAC Stereo (converted with foobar2000 to tracks) 24bit/96 kHz | Front/Rear Covers | 1,2 GB

A saxophonist whose patiently evolving style has been one of the more interesting stories in contemporary jazz, Ravi Coltrane helps launch Columbia's Eighty-Eights subsidiary (founded by Japanese producer Yasohachi "88" Itoh) with a set that is by turns more freewheeling and lyrical than his previous major label efforts. Featuring two bands–one with George Colligan on piano and the other Andy Milne–Mad 6 reflects Ravi's involvement in both jazz classicism and the throbbing, funkified bop of Brooklyn's M-Base school.

Anytime that the son of a jazz great not only follows his father into the business but also plays the same instruments, the difficulty in overcoming the shadow must be incredible. Yet Ravi Coltrane has displayed a great deal of maturity throughout his career, unafraid of covering his father's compositions or songs that he recorded, while successfully finding his own voice. These 2002 sessions feature Coltrane with two distinct rhythm sections, with either Andy Milne or George Colligan on piano and James Genus or Darryl Hall on bass, plus drummer Steve Haas. The comparisons to John Coltrane are inevitable with his explosive interpretations of "26-2" and "Fifth House," along with the bluesy, loping rendition of Thelonious Monk's "Ask Me Now." Yet the tense, brisk arrangement of "'Round Midnight" suggests the hustle and bustle of Manhattan nightlife at that hour, with a tense rhythm behind his furious soprano sax. Ravi's originals also demonstrate his promise as a composer, including the driving "Between Lines" and the delightfully abstract "The Mad 6." This is one of the best efforts by a fine musician who deserves to be evaluated on his own terms.

Tracklist:

01. 26-2
02. Ginger Bread Boy
03. Avignon
04. The Mad 6
05. Self Portrait in Three Colors
06. Between Lines
07. 'Round Midnight
08. The Return of Olymbus
09. Ask Me Now
10. Fifth House

Produced by Yasohachi "88" Itoh. Engineered by David Baker. Mastered By Koji "C-chan" Suzuki.
Recorded on May 26 & 27, 2002 at Avatar Studio, New York. DSD Mixing by Yoshihiro Suzuki.

Personnel
Ravi Coltrane - tenor and soprano sax
George Colligan - piano (tracks: 1, 4 to 6 & 10)
Andy Milne - piano (tracks: 2, 3, 7, 8 & 9)
James Genus - bass (tracks: 2, 3, 7, 8 & 9)
Darryl Hall - bass (tracks: 1, 4 to 6 & 10)
Steve Hass - drums

foobar2000 1.5.2 / Dynamic Range Meter 1.1.1

––––––––––––––––––––––––––––––––––––––––
Analyzed: ? / ?
––––––––––––––––––––––––––––––––––––––––

DR Peak RMS Duration Track
––––––––––––––––––––––––––––––––––––––––
DR10 -3.80 dB -15.18 dB 5:09 01-26-2
DR10 -2.08 dB -15.08 dB 4:10 02-Ginger Bread Boy
DR12 -3.96 dB -19.15 dB 7:12 03-Avignon
DR11 -3.81 dB -17.57 dB 1:19 04-The Mad 6
DR13 -5.43 dB -21.63 dB 5:21 05-Self Portrait in Three Colors
DR11 -3.80 dB -16.13 dB 4:42 06-Between Lines
DR10 -2.93 dB -15.20 dB 6:23 07-'Round Midnight
DR12 -3.94 dB -18.91 dB 3:00 08-The Return of Olymbus
DR15 -4.86 dB -23.55 dB 6:00 09-Ask Me Now
DR11 -3.88 dB -16.62 dB 7:28 10-Fifth House
––––––––––––––––––––––––––––––––––––––––

Number of tracks: 10
Official DR value: DR12

Samplerate: 2822400 Hz / PCM Samplerate: 176400 Hz
Channels: 2
Bits per sample: 1
Bitrate: 5645 kbps
Codec: DSD64
==========================


Thanks to jazzyman!
Uncompressed SACD ISO size > 2,04 GB
>