Tags
Language
Tags

Riccardo Pisani, Ensemble Arte Musica & Francesco Cera - Rasi: La cetra di sette corde (2021) [Official Digital Download 24/48]

Posted By:
Riccardo Pisani, Ensemble Arte Musica & Francesco Cera - Rasi: La cetra di sette corde (2021) [Official Digital Download 24/48]

Riccardo Pisani, Ensemble Arte Musica & Francesco Cera - Rasi: La cetra di sette corde (2021)
FLAC (tracks) 24-bit/48 kHz | Front Cover | Time - 67:47 minutes | 714 MB
Classical, Vocal | Label: Arcana, Official Digital Download

The first monographic recording entirely dedicated to Francesco Rasi is released for the 400th anniversary of his death (30 November 1621). The first interpreter of Monteverdi’s Orfeo, an astonishing tenor and poet with a life studded with triumphs, constant travels, debts and murders, this native of Arezzo was fought over by all the courts of Italy and Europe. The pieces, on texts by Petrarch, Guarini, Chiabrera and Rasi himself – including ten world premieres – are taken from the Vaghezze di Musica (1608) and the Madrigali (1610). Tenor soloist Riccardo Pisani explores their extraordinary poetic and musical power, in a kaleidoscope of affects divided into seven ‘strings of the lyre’. He is accompanied by the Ensemble Arte Musica, directed by harpsichordist Francesco Cera. The two artists have been collaborating for years on rediscovering the Italian vocal repertory of the seventeenth century, as witnessed by the recent success of their set of Frescobaldi CDs, released on Arcana.

Tracklist:
1. Riccardo Pisani, Ensemble Arte Musica & Francesco Cera – Il pianto d’Orfeo: Indarno Febo (02:29)
2. Ensemble Arte Musica & Francesco Cera – Aria di Fiorenza (01:56)
3. Riccardo Pisani, Ensemble Arte Musica & Francesco Cera – Filli mia, Filli dolce (01:35)
4. Riccardo Pisani, Ensemble Arte Musica & Francesco Cera – Un guardo, ohimè (01:56)
5. Riccardo Pisani, Ensemble Arte Musica & Francesco Cera – Occhi sempre sereni (01:37)
6. Francesco Cera – Canzona Seconda (03:02)
7. Riccardo Pisani, Ensemble Arte Musica & Francesco Cera – Canzoniere: S’una fede amorosa (02:54)
8. Riccardo Pisani, Ensemble Arte Musica & Francesco Cera – Cor mio, mentre vi miro (02:54)
9. Riccardo Pisani, Ensemble Arte Musica & Francesco Cera – Hor ch’a noi rimena (01:59)
10. Ensemble Arte Musica & Francesco Cera – Ballo di Mantova (02:26)
11. Riccardo Pisani, Ensemble Arte Musica & Francesco Cera – Filli, deh mira (01:41)
12. Riccardo Pisani, Ensemble Arte Musica & Francesco Cera – Ahi, fuggitivo ben (03:00)
13. Giovanni Bellini & Francesco Cera – Toccata Seconda (04:02)
14. Riccardo Pisani, Ensemble Arte Musica & Francesco Cera – Nell’altrui braccia (01:47)
15. Riccardo Pisani, Ensemble Arte Musica & Francesco Cera – Deh, come in un momento (03:52)
16. Riccardo Pisani, Ensemble Arte Musica & Francesco Cera – Scherzi: Schiera d’aspri martiri (01:28)
17. Giovanni Bellini & Francesco Cera – Aria di Romanesca (02:22)
18. Riccardo Pisani, Ensemble Arte Musica & Francesco Cera – Ferma Tersilla mia (06:03)
19. Silvia de Maria, Giovanni Bellini & Francesco Cera – Canzona detta “La Tromboncina” (03:25)
20. Riccardo Pisani, Ensemble Arte Musica & Francesco Cera – O rimembranza amara (03:12)
21. Riccardo Pisani, Ensemble Arte Musica & Francesco Cera – Sento l’antica fiamma (02:32)
22. Riccardo Pisani & Francesco Cera – I trionfi: Or so come da sé (02:09)
23. Chiara Granata – Toccata Quarta (04:10)
24. Riccardo Pisani & Chiara Granata – O pura, o chiara stella (03:14)
25. Riccardo Pisani, Ensemble Arte Musica & Francesco Cera – O che felice giorno (01:49)

foobar2000 1.4.1 / Dynamic Range Meter 1.1.1
log date: 2021-10-13 12:48:14

––––––––––––––––––––––––––––––––––––––––
Analyzed: Riccardo Pisani, Ensemble Arte Musica & Francesco Cera / Rasi: La cetra di sette corde
––––––––––––––––––––––––––––––––––––––––

DR Peak RMS Duration Track
––––––––––––––––––––––––––––––––––––––––
DR8 -0.81 dB -12.69 dB 2:30 01-Rasi: Il pianto d’Orfeo: Indarno Febo
DR13 -2.00 dB -18.38 dB 1:57 02-Anonymous: Aria di Fiorenza
DR10 -0.81 dB -14.37 dB 1:36 03-Rasi: Filli mia, Filli dolce
DR10 -0.81 dB -15.38 dB 1:56 04-Rasi: Un guardo, ohimè
DR11 -0.81 dB -14.17 dB 1:38 05-Rasi: Occhi sempre sereni
DR13 -1.47 dB -19.53 dB 3:03 06-Macque: Canzona Seconda
DR10 -0.81 dB -15.17 dB 2:54 07-Rasi: Canzoniere: S’una fede amorosa
DR9 -0.81 dB -13.98 dB 2:54 08-Rasi: Cor mio, mentre vi miro
DR11 -0.81 dB -14.50 dB 2:00 09-Rasi: Hor ch’a noi rimena
DR13 -0.81 dB -18.52 dB 2:27 10-Ferrini: Ballo di Mantova
DR11 -0.81 dB -15.37 dB 1:41 11-Rasi: Filli, deh mira
DR10 -0.81 dB -14.98 dB 3:01 12-Rasi: Ahi, fuggitivo ben
DR14 -1.25 dB -20.54 dB 4:02 13-Kapsberger: Toccata Seconda
DR8 -0.81 dB -12.82 dB 1:48 14-Rasi: Nell’altrui braccia
DR9 -0.81 dB -13.41 dB 3:53 15-Rasi: Deh, come in un momento
DR10 -0.81 dB -13.56 dB 1:29 16-Rasi: Scherzi: Schiera d’aspri martiri
DR12 -9.50 dB -25.55 dB 2:23 17-Anonymous: Aria di Romanesca
DR12 -0.81 dB -17.19 dB 6:03 18-Rasi: Ferma Tersilla mia
DR13 -0.81 dB -17.70 dB 3:25 19-Frescobaldi: Canzona detta “La Tromboncina”
DR8 -0.81 dB -12.79 dB 3:13 20-Rasi: O rimembranza amara
DR9 -0.81 dB -14.06 dB 2:32 21-Rasi: Sento l’antica fiamma
DR11 -0.81 dB -15.85 dB 2:10 22-Rasi: I trionfi: Or so come da sé
DR12 -0.81 dB -17.20 dB 4:10 23-Maione: Toccata Quarta
DR10 -0.81 dB -15.45 dB 3:15 24-Rasi: O pura, o chiara stella
DR10 -0.81 dB -14.05 dB 1:49 25-Rasi: O che felice giorno
––––––––––––––––––––––––––––––––––––––––

Number of tracks: 25
Official DR value: DR11

Samplerate: 48000 Hz
Channels: 2
Bits per sample: 24
Bitrate: 1502 kbps
Codec: FLAC
================================================================================


Thanks to the Original customer!