Tags
Language
Tags

Maria Keohane, Ricercar Consort & Philippe Pierlot - Beethoven: Irish Songs (2021) [Official Digital Download 24/96]

Posted By:
Maria Keohane, Ricercar Consort & Philippe Pierlot - Beethoven: Irish Songs (2021) [Official Digital Download 24/96]

Maria Keohane, Ricercar Consort, Philippe Pierlot & Sarah-Jane Summers - Beethoven: Irish Songs (2021)
FLAC (tracks) 24-bit/96 kHz | Front Cover & Digital Booklet | Time - 56:45 minutes | 1 GB
Classical, Vocal | Label: Mirare, Official Digital Download

This recording includes an excellent selection from Beethoven’s many settings of Irish folksongs, with imaginative new arrangements of his accompaniments, rescored for more traditional instruments than the original piano, violin and cello.

His settings are interspersed with more conventional versions of Irish and Scottish folk tunes taken from other sources. These help to highlight his remarkable ingenuity, which preserves the original character of the folksongs while elevating them to a much higher level of interest.

Tracklist:
1. Pierlot Philippe, Keohane Maria, Ricercar Consort & Sarah-Jane Summers – The pulse of an Irishman, WoO 154 No. 4 (02:39)
2. Pierlot Philippe, Keohane Maria, Ricercar Consort & Sarah-Jane Summers – O soothe me, my lyre, WoO 153 No. 7 (03:35)
3. Pierlot Philippe, Keohane Maria, Ricercar Consort & Sarah-Jane Summers – The morning air, WoO 152 No. 4 (02:29)
4. Pierlot Philippe, Keohane Maria, Ricercar Consort & Sarah-Jane Summers – My bonny laddie has my heart (04:45)
5. Pierlot Philippe, Keohane Maria, Ricercar Consort & Sarah-Jane Summers – En midsommarafton (02:36)
6. Pierlot Philippe, Keohane Maria, Ricercar Consort & Sarah-Jane Summers – Lilla Carl, WoO 158 No. 17 (04:32)
7. Pierlot Philippe, Keohane Maria, Ricercar Consort & Sarah-Jane Summers – Since greybeards inform us, WoO 153 No. 4 (01:41)
8. Pierlot Philippe, Keohane Maria, Ricercar Consort & Sarah-Jane Summers – Thy ship must sail, WoO 153 No. 20 (02:06)
9. Pierlot Philippe, Keohane Maria, Ricercar Consort & Sarah-Jane Summers – Open the door softly - I would rather than Ireland (03:48)
10. Pierlot Philippe, Keohane Maria, Ricercar Consort & Sarah-Jane Summers – By the side of the Shannon, WoO 157 No. 8 (02:18)
11. Pierlot Philippe, Keohane Maria, Ricercar Consort & Sarah-Jane Summers – The Miller o' drone - St. Kilda wedding - Port-a-Beul (02:38)
12. Pierlot Philippe, Keohane Maria, Ricercar Consort & Sarah-Jane Summers – On the massacre of Glencoe, WoO 152 No. 5 (07:08)
13. Pierlot Philippe, Keohane Maria, Ricercar Consort & Sarah-Jane Summers – From Garyone, WoO 154 No. 7 (03:50)
14. Pierlot Philippe, Keohane Maria, Ricercar Consort & Sarah-Jane Summers – The elfin fairies, WoO 154 No. 1 (02:33)
15. Pierlot Philippe, Keohane Maria, Ricercar Consort & Sarah-Jane Summers – Gu ma maith thig an crùn dha Tearlach (Well may Charlie wear the crown) (03:56)
16. Pierlot Philippe, Keohane Maria, Ricercar Consort & Sarah-Jane Summers – Di-moladh an Uisge-bheatha (In dispraise of whisky) (01:53)
17. Pierlot Philippe, Keohane Maria, Ricercar Consort & Sarah-Jane Summers – The parting glass (04:11)

foobar2000 1.4.1 / Dynamic Range Meter 1.1.1
log date: 2021-10-13 14:12:03

––––––––––––––––––––––––––––––––––––––––
Analyzed: Ricercar Consort & Philippe Pierlot / Beethoven: Irish Songs
––––––––––––––––––––––––––––––––––––––––

DR Peak RMS Duration Track
––––––––––––––––––––––––––––––––––––––––
DR14 -0.41 dB -19.63 dB 2:39 01-Beethoven: The pulse of an Irishman, WoO 154 No. 4
DR13 -2.56 dB -20.43 dB 3:35 02-Beethoven: O soothe me, my lyre, WoO 153 No. 7
DR12 -2.98 dB -19.47 dB 2:30 03-Beethoven: The morning air, WoO 152 No. 4
DR12 -6.42 dB -24.38 dB 4:46 04-Beethoven: My bonny laddie has my heart
DR13 -1.70 dB -21.07 dB 2:36 05-Beethoven: En midsommarafton
DR12 -0.66 dB -18.05 dB 4:33 06-Beethoven: Lilla Carl, WoO 158 No. 17
DR11 -2.46 dB -18.48 dB 1:41 07-Beethoven: Since greybeards inform us, WoO 153 No. 4
DR11 -0.25 dB -16.41 dB 2:07 08-Beethoven: Thy ship must sail, WoO 153 No. 20
DR14 -9.00 dB -28.91 dB 3:49 09-Beethoven: Open the door softly - I would rather than Ireland
DR13 -0.78 dB -18.81 dB 2:18 10-Beethoven: By the side of the Shannon, WoO 157 No. 8
DR12 -5.97 dB -21.43 dB 2:38 11-Beethoven: The Miller o' drone - St. Kilda wedding - Port-a-Beul
DR13 -1.21 dB -18.83 dB 7:08 12-Beethoven: On the massacre of Glencoe, WoO 152 No. 5
DR14 -0.38 dB -18.26 dB 3:50 13-Beethoven: From Garyone, WoO 154 No. 7
DR12 -1.21 dB -18.63 dB 2:34 14-Beethoven: The elfin fairies, WoO 154 No. 1
DR12 -9.20 dB -26.13 dB 3:57 15-Beethoven: Gu ma maith thig an crùn dha Tearlach (Well may Charlie wear the crown)
DR11 -3.17 dB -17.54 dB 1:53 16-Beethoven: Di-moladh an Uisge-bheatha (In dispraise of whisky)
DR14 -2.75 dB -21.90 dB 4:12 17-Beethoven: The parting glass
––––––––––––––––––––––––––––––––––––––––

Number of tracks: 17
Official DR value: DR13

Samplerate: 96000 Hz
Channels: 2
Bits per sample: 24
Bitrate: 2387 kbps
Codec: FLAC
================================================================================


Thanks to the Original customer!