Roxy Music - Japanese SHM-SACD Reissue Series '2015 (8x SACDs) [PS3 ISO + Hi-Res FLAC]

Posted By: HDAtall
Roxy Music - Japanese SHM-SACD Reissue Series '2015 (8x SACDs) [PS3 ISO + Hi-Res FLAC]

Roxy Music - Japanese SHM-SACD Reissue Series '2015 (8x SACDs)
PS3 Rip | SACD ISO | DSD64 2.0 > 1-bit/2.8224 MHz | 333:13 minutes | Scans included | 9,49 GB
or FLAC(converted with foobar2000 to tracks) 24bit/96 kHz | Full Scans included | 7,57 GB

2015's collection of Roxy Music, released in Japan as SHM-SACDs. Features DSD flat transfer from the U.K. original analogue master tapes. Includes all of the band's studio albums: Roxy Music (1972), For Your Pleasure (1973), Stranded (1973), Country Life (1974), Siren (1975), Manifesto (1979), Flesh and Blood (1980), Avalon (1982).


Roxy Music - Japanese SHM-SACD Reissue Series '2015 (8x SACDs) [PS3 ISO + Hi-Res FLAC]

Roxy Music - Roxy Music (1972) [Japanese Limited SHM-SACD 2015]
PS3 Rip | SACD ISO | DSD64 2.0 > 1-bit/2.8224 MHz | 42:41 minutes | Scans included | 1,27 GB
or FLAC(converted with foobar2000 to tracks) 24bit/96 kHz | Full Scans included | 857 MB

Falling halfway between musical primitivism and art rock ambition, Roxy Music's eponymous debut remains a startling redefinition of rock's boundaries. Simultaneously embracing kitschy glamour and avant-pop, Roxy Music shimmers with seductive style and pulsates with disturbing synthetic textures. Although no musician demonstrates much technical skill at this point, they are driven by boundless imagination – Brian Eno's synthesized "treatments" exploit electronic instruments as electronics, instead of trying to shoehorn them into conventional acoustic patterns. Similarly, Bryan Ferry finds that his vampiric croon is at its most effective when it twists conventional melodies, Phil Manzanera's guitar is terse and unpredictable, while Andy Mackay's saxophone subverts rock & roll clichés by alternating R&B honking with atonal flourishes. But what makes Roxy Music such a confident, astonishing debut is how these primitive avant-garde tendencies are married to full-fledged songs, whether it's the free-form, structure-bending "Remake/Remodel" or the sleek glam of "Virginia Plain," the debut single added to later editions of the album. That was the trick that elevated Roxy Music from an art school project to the most adventurous rock band of the early '70s.

Tracklist:

01. Re-Make/Re-Model
02. Ladytron
03. If There Is Something
04. 2 H.B.
05. The Bob (Medley)
06. Chance Meeting
07. Would You Believe?
08. Sea Breezes
09. Bitters End

DSD flat transferred from U.K. original analogue master tapes.
Edited in DSD by Manabu Matsumura at Universal Music Studios, Tokyo, in 2015.

foobar2000 1.4.3 / Dynamic Range Meter 1.1.1

––––––––––––––––––––––––––––––––––––––––
Analyzed: Roxy Music / Roxy Music
––––––––––––––––––––––––––––––––––––––––

DR Peak RMS Duration Track
––––––––––––––––––––––––––––––––––––––––
DR12 -3.60 dB -18.18 dB 5:15 01-Re-Make/Re-Model
DR11 -4.63 dB -19.80 dB 4:23 02-Ladytron
DR13 -4.49 dB -20.05 dB 6:37 03-If There Is Something
DR14 -5.15 dB -21.25 dB 4:33 04-2 H.B.
DR14 -4.12 dB -22.48 dB 5:47 05-The Bob (Medley)
DR13 -6.95 dB -23.20 dB 3:07 06-Chance Meeting
DR13 -4.76 dB -20.04 dB 3:52 07-Would You Believe?
DR15 -4.53 dB -24.44 dB 7:03 08-Sea Breezes
DR14 -7.13 dB -24.64 dB 2:06 09-Bitters End
––––––––––––––––––––––––––––––––––––––––

Number of tracks: 9
Official DR value: DR13

Samplerate: 2822400 Hz / PCM Samplerate: 176400 Hz
Channels: 2
Bits per sample: 1
Bitrate: 5645 kbps
Codec: DSD64


Uncompressed SACD ISO size > 1,72 GB


Roxy Music - Japanese SHM-SACD Reissue Series '2015 (8x SACDs) [PS3 ISO + Hi-Res FLAC]

Roxy Music - For Your Pleasure (1973) [Japanese Limited SHM-SACD 2015]
PS3 Rip | SACD ISO | DSD64 2.0 > 1-bit/2.8224 MHz | 42:15 minutes | Scans included | 1,28 GB
or FLAC(converted with foobar2000 to tracks) 24bit/96 kHz | Full Scans included | 837 MB

On Roxy Music's debut, the tensions between Brian Eno and Bryan Ferry propelled their music to great, unexpected heights, and for most of the group's second album, For Your Pleasure, the band equals, if not surpasses, those expectations. However, there are a handful of moments where those tensions become unbearable, as when Eno wants to move toward texture and Ferry wants to stay in more conventional rock territory; the nine-minute "The Bogus Man" captures such creative tensions perfectly, and it's easy to see why Eno left the group after the album was completed. Still, those differences result in yet another extraordinary record from Roxy Music, one that demonstrates even more clearly than the debut how avant-garde ideas can flourish in a pop setting. This is especially evident in the driving singles "Do the Strand" and "Editions of You," which pulsate with raw energy and jarring melodic structures. Roxy also illuminate the slower numbers, such as the eerie "In Every Dream Home a Heartache," with atonal, shimmering synthesizers, textures that were unexpected and innovative at the time of its release. Similarly, all of For Your Pleasure walks the tightrope between the experimental and the accessible, creating a new vocabulary for rock bands, and one that was exploited heavily in the ensuing decade.

Tracklist:

01. Do The Strand
02. Beauty Queen
03. Strictly Confidential
04. Editions Of You
05. In Every Dream Home A Heartache
06. The Bogus Man
07. Grey Lagoons
08. For Your Pleasure

DSD flat transferred from U.K. original analogue master tapes.
Edited in DSD by Manabu Matsumura at Universal Music Studios, Tokyo, in 2015.

foobar2000 1.4.3 / Dynamic Range Meter 1.1.1

––––––––––––––––––––––––––––––––––––––––
Analyzed: Roxy Music / For Your Pleasure
––––––––––––––––––––––––––––––––––––––––

DR Peak RMS Duration Track
––––––––––––––––––––––––––––––––––––––––
DR12 -3.97 dB -17.69 dB 4:05 01-Do The Strand
DR12 -5.15 dB -19.67 dB 4:39 02-Beauty Queen
DR12 -5.69 dB -21.18 dB 3:47 03-Strictly Confidential
DR11 -4.27 dB -17.77 dB 3:48 04-Editions Of You
DR11 -5.77 dB -20.63 dB 5:29 05-In Every Dream Home A Heartache
DR13 -5.62 dB -21.34 dB 9:22 06-The Bogus Man
DR11 -5.06 dB -18.08 dB 4:11 07-Grey Lagoons
DR12 -5.03 dB -20.11 dB 6:54 08-For Your Pleasure
––––––––––––––––––––––––––––––––––––––––

Number of tracks: 8
Official DR value: DR12

Samplerate: 2822400 Hz / PCM Samplerate: 176400 Hz
Channels: 2
Bits per sample: 1
Bitrate: 5645 kbps
Codec: DSD64


Uncompressed SACD ISO size > 1,7 GB


Roxy Music - Japanese SHM-SACD Reissue Series '2015 (8x SACDs) [PS3 ISO + Hi-Res FLAC]

Roxy Music - Stranded (1973) [Japanese Limited SHM-SACD 2015]
PS3 Rip | SACD ISO | DSD64 2.0 > 1-bit/2.8224 MHz | 41:08 minutes | Scans included | 1,24 GB
or FLAC(converted with foobar2000 to tracks) 24bit/96 kHz | Full Scans included | 818 MB

Without Brian Eno, Roxy Music immediately became less experimental, yet it remained adventurous, as Stranded illustrates. Under the direction of Bryan Ferry, Roxy moved toward relatively straightforward territory, adding greater layers of piano and heavy guitars. Even without the washes of Eno's synthesizers, Roxy's music remains unsettling on occasion, yet in this new incarnation, they favor more measured material, whether it's the reflective "A Song for Europe" or the shifting textures of "Psalm." Even the rockers, such as the surging "Street Life" and the segmented "Mother of Pearl," are distinguished by subtle songwriting that emphasizes both Ferry's tortured glamour and Roxy's increasingly impressive grasp of sonic detail.

Tracklist:

01. Street Life
02. Just Like You
03. Amazona
04. Psalm
05. Serenade
06. A Song For Europe
07. Mother Of Pearl
08. Sunset

DSD flat transferred from U.K. original analogue master tapes.
Edited in DSD by Manabu Matsumura at Universal Music Studios, Tokyo, in 2015.

foobar2000 1.4.3 / Dynamic Range Meter 1.1.1

––––––––––––––––––––––––––––––––––––––––
Analyzed: Roxy Music / Stranded
––––––––––––––––––––––––––––––––––––––––

DR Peak RMS Duration Track
––––––––––––––––––––––––––––––––––––––––
DR11 -4.04 dB -17.90 dB 3:30 01-Street Life
DR14 -6.23 dB -21.85 dB 3:34 02-Just Like You
DR11 -4.51 dB -18.92 dB 4:16 03-Amazona
DR13 -5.23 dB -22.12 dB 8:05 04-Psalm
DR12 -4.39 dB -17.74 dB 2:57 05-Serenade
DR11 -5.56 dB -19.85 dB 5:45 06-A Song For Europe
DR13 -5.00 dB -20.79 dB 6:54 07-Mother Of Pearl
DR13 -5.99 dB -23.44 dB 6:06 08-Sunset
––––––––––––––––––––––––––––––––––––––––

Number of tracks: 8
Official DR value: DR12

Samplerate: 2822400 Hz / PCM Samplerate: 176400 Hz
Channels: 2
Bits per sample: 1
Bitrate: 5645 kbps
Codec: DSD64


Uncompressed SACD ISO size > 1,65 GB


Roxy Music - Japanese SHM-SACD Reissue Series '2015 (8x SACDs) [PS3 ISO + Hi-Res FLAC]

Roxy Music - Country Life (1974) [Japanese Limited SHM-SACD 2015]
PS3 Rip | SACD ISO | DSD64 2.0 > 1-bit/2.8224 MHz | 41:44 minutes | Scans included | 1,27 GB
or FLAC(converted with foobar2000 to tracks) 24bit/96 kHz | Full Scans included | 846 MB

Continuing with the stylistic developments of Stranded, Country Life finds Roxy Music at the peak of their powers, alternating between majestic, unsettling art rock and glamorous, elegant pop/rock. At their best, Roxy combine these two extremes, like on the exhilarating opener "The Thrill of It All," but Country Life benefits considerably from the ebb and flow of the group's two extremes, since it showcases their deft instrumental execution and their textured, enthralling songwriting. And, in many ways, Country Life offers the greatest and most consistent set of Roxy Music songs, illustrating their startling depth. From the sleek rock of "All I Want Is You" and "Prairie Rose" to the elegant, string-laced pop of "A Really Good Time," Country Life is filled with thrilling songs, and Roxy Music rarely sounded as invigorating as they do here.

Tracklist:

01. The Thrill Of It All
02. Three And Nine
03. All I Want Is You
04. Out Of The Blue
05. If It Takes All Night
06. Bitter Sweet
07. Triptych
08. Casanova
09. A Really Good Time
10. Prairie Rose

DSD flat transferred from U.K. original analogue master tapes.
Edited in DSD by Manabu Matsumura at Universal Music Studios, Tokyo, in 2015.

foobar2000 1.4.3 / Dynamic Range Meter 1.1.1

––––––––––––––––––––––––––––––––––––––––
Analyzed: Roxy Music / Country Life
––––––––––––––––––––––––––––––––––––––––

DR Peak RMS Duration Track
––––––––––––––––––––––––––––––––––––––––
DR11 -5.56 dB -18.19 dB 6:24 01-The Thrill Of It All
DR12 -5.86 dB -20.34 dB 4:04 02-Three And Nine
DR10 -5.89 dB -18.92 dB 2:53 03-All I Want Is You
DR11 -5.85 dB -19.13 dB 4:47 04-Out Of The Blue
DR12 -5.61 dB -19.30 dB 3:11 05-If It Takes All Night
DR13 -6.21 dB -24.08 dB 4:52 06-Bitter Sweet
DR12 -9.35 dB -23.70 dB 3:10 07-Triptych
DR12 -5.24 dB -19.29 dB 3:24 08-Casanova
DR13 -6.91 dB -22.76 dB 3:47 09-A Really Good Time
DR12 -5.79 dB -19.12 dB 5:14 10-Prairie Rose
––––––––––––––––––––––––––––––––––––––––

Number of tracks: 10
Official DR value: DR12

Samplerate: 2822400 Hz / PCM Samplerate: 176400 Hz
Channels: 2
Bits per sample: 1
Bitrate: 5645 kbps
Codec: DSD64


Uncompressed SACD ISO size > 1,68 GB


Roxy Music - Japanese SHM-SACD Reissue Series '2015 (8x SACDs) [PS3 ISO + Hi-Res FLAC]

Roxy Music - Siren (1975) [Japanese Limited SHM-SACD 2015]
PS3 Rip | SACD ISO | DSD64 2.0 > 1-bit/2.8224 MHz | 42:35 minutes | Scans included | 1,28 GB
or FLAC(converted with foobar2000 to tracks) 24bit/96 kHz | Full Scans included | 849 MB

Abandoning the intoxicating blend of art rock and glam-pop that distinguished Stranded and Country Life, Roxy Music concentrates on Bryan Ferry's suave, charming crooner persona for the elegantly modern Siren. As the disco-fied opener "Love Is the Drug" makes clear, Roxy embraces dance and unabashed pop on Siren, weaving them into their sleek, arty sound. It does come at the expense of their artier inclinations, which is part of what distinguished Roxy, but the end result is captivating. Lacking the consistently amazing songs of its predecessor, Siren has a thematic consistency that works in its favor, and helps elevate its best songs – "Sentimental Fool," "Both Ends Burning," "Just Another High" – as well as the album itself into the realm of classics.

Tracklist:

01. Love Is The Drug
02. End Of The Line
03. Sentimental Fool
04. Whirlwind
05. She Sells
06. Could It Happen To Me?
07. Both Ends Burning
08. Nightingale
09. Just Another High

DSD flat transferred from U.K. original analogue master tapes.
Edited in DSD by Manabu Matsumura at Universal Music Studios, Tokyo, in 2015.

foobar2000 1.4.3 / Dynamic Range Meter 1.1.1

––––––––––––––––––––––––––––––––––––––––
Analyzed: Roxy Music / Siren
––––––––––––––––––––––––––––––––––––––––

DR Peak RMS Duration Track
––––––––––––––––––––––––––––––––––––––––
DR14 -3.67 dB -21.07 dB 4:09 01-Love Is The Drug
DR14 -5.10 dB -21.18 dB 5:14 02-End Of The Line
DR14 -4.99 dB -22.20 dB 6:14 03-Sentimental Fool
DR13 -5.23 dB -18.93 dB 3:37 04-Whirlwind
DR13 -4.73 dB -19.19 dB 3:50 05-She Sells
DR14 -4.54 dB -20.20 dB 3:37 06-Could It Happen To Me?
DR13 -5.39 dB -20.25 dB 5:15 07-Both Ends Burning
DR13 -4.98 dB -21.95 dB 4:09 08-Nightingale
DR14 -4.33 dB -21.04 dB 6:30 09-Just Another High
––––––––––––––––––––––––––––––––––––––––

Number of tracks: 9
Official DR value: DR14

Samplerate: 2822400 Hz / PCM Samplerate: 176400 Hz
Channels: 2
Bits per sample: 1
Bitrate: 5645 kbps
Codec: DSD64


Uncompressed SACD ISO size > 1,71 GB


Roxy Music - Japanese SHM-SACD Reissue Series '2015 (8x SACDs) [PS3 ISO + Hi-Res FLAC]

Roxy Music - Manifesto (1979) [Japanese Limited SHM-SACD 2015]
PS3 Rip | SACD ISO | DSD64 2.0 > 1-bit/2.8224 MHz | 43:11 minutes | Scans included | 1,29 GB
or FLAC(converted with foobar2000 to tracks) 24bit/96 kHz | Full Scans included | 891 MB

Returning to action after four years of solo projects, Roxy Music redefined its sound and agenda on Manifesto. More than ever, Roxy sounds like Bryan Ferry's backing band, as the group strips away its art rock influences, edits out the instrumental interludes in favor of concise pop songs, and adds layers of stylish disco rhythms. Although the songwriting is distressingly inconsistent, there are a number of wonderful moments on the record, particularly in the sighing "Angel Eyes" and the heartbroken "Dance Away." Still, trading sonic adventure for lush, accessible disco-pop isn't entirely satisfactory, even if it is momentarily seductive.

Tracklist:

01. Manifesto
02. Trash
03. Angel Eyes
04. Still Falls The Rain
05. Stronger Through The Years
06. Ain't That So
07. My Little Girl
08. Dance Away
09. Cry, Cry, Cry
10. Spin Me Round

DSD flat transferred from U.K. original analogue master tapes.
Edited in DSD by Manabu Matsumura at Universal Music Studios, Tokyo, in 2015.

foobar2000 1.4.3 / Dynamic Range Meter 1.1.1

––––––––––––––––––––––––––––––––––––––––
Analyzed: Roxy Music / Manifesto
––––––––––––––––––––––––––––––––––––––––

DR Peak RMS Duration Track
––––––––––––––––––––––––––––––––––––––––
DR13 -4.30 dB -19.56 dB 5:31 01-Manifesto
DR12 -5.92 dB -21.04 dB 2:13 02-Trash
DR12 -4.50 dB -18.88 dB 3:33 03-Angel Eyes
DR13 -5.23 dB -19.90 dB 4:13 04-Still Falls The Rain
DR13 -4.82 dB -20.88 dB 6:15 05-Stronger Through The Years
DR13 -4.23 dB -20.84 dB 5:39 06-Ain't That So
DR14 -4.91 dB -21.75 dB 3:18 07-My Little Girl
DR12 -5.77 dB -20.59 dB 4:22 08-Dance Away
DR12 -4.61 dB -20.03 dB 2:56 09-Cry, Cry, Cry
DR15 -5.72 dB -25.04 dB 5:13 10-Spin Me Round
––––––––––––––––––––––––––––––––––––––––

Number of tracks: 10
Official DR value: DR13

Samplerate: 2822400 Hz / PCM Samplerate: 176400 Hz
Channels: 2
Bits per sample: 1
Bitrate: 5645 kbps
Codec: DSD64


Uncompressed SACD ISO size > 1,73 GB


Roxy Music - Japanese SHM-SACD Reissue Series '2015 (8x SACDs) [PS3 ISO + Hi-Res FLAC]

Roxy Music - Flesh And Blood (1980) [Japanese Limited SHM-SACD 2015]
PS3 Rip | SACD ISO | DSD64 2.0 > 1-bit/2.8224 MHz | 42:07 minutes | Scans included | 1,25 GB
or FLAC(converted with foobar2000 to tracks) 24bit/96 kHz | Full Scans included | 849 MB

An even slicker record than Manifesto, Flesh + Blood precariously balances between alluringly seductive, sophisticated soul-pop and cloying, radio-ready disco-pop. At its best, the album is effortlessly suave and charming – "Over You" is one of their greatest singles, and "Oh Yeah" is nearly as persuasive – but much of the record is devoted to ill-formed, stylish lounge-pop. In particular, the reliance on reworked covers of "In the Midnight Hour" and "Eight Miles High" is distressing, not only because it signals a lack of imagination, but also because it suggests that Flesh + Blood is simply a lesser solo effort from Bryan Ferry. And even the handful of undeniably strong moments can't erase the feeling that Roxy Music were beginning to run out of ideas.

Tracklist:

01. In The Midnight Hour
02. Oh Yeah!
03. Same Old Scene
04. Flesh And Blood
05. My Only Love
06. Over You
07. Eight Miles High
08. Rain, Rain, Rain
09. No Strange Delight
10. Running Wild

DSD flat transferred from U.K. original analogue master tapes.
Edited in DSD by Manabu Matsumura at Universal Music Studios, Tokyo, in 2015.

foobar2000 1.4.3 / Dynamic Range Meter 1.1.1

––––––––––––––––––––––––––––––––––––––––
Analyzed: Roxy Music / Flesh And Blood
––––––––––––––––––––––––––––––––––––––––

DR Peak RMS Duration Track
––––––––––––––––––––––––––––––––––––––––
DR14 -4.00 dB -20.57 dB 3:12 01-In The Midnight Hour
DR14 -4.98 dB -22.72 dB 4:52 02-Oh Yeah!
DR13 -4.69 dB -19.42 dB 3:58 03-Same Old Scene
DR13 -5.33 dB -20.80 dB 3:14 04-Flesh And Blood
DR14 -5.84 dB -21.67 dB 5:20 05-My Only Love
DR12 -4.21 dB -18.95 dB 3:27 06-Over You
DR15 -4.03 dB -21.24 dB 4:55 07-Eight Miles High
DR14 -3.93 dB -21.07 dB 3:21 08-Rain, Rain, Rain
DR16 -4.21 dB -22.55 dB 4:46 09-No Strange Delight
DR12 -5.22 dB -20.52 dB 5:04 10-Running Wild
––––––––––––––––––––––––––––––––––––––––

Number of tracks: 10
Official DR value: DR14

Samplerate: 2822400 Hz / PCM Samplerate: 176400 Hz
Channels: 2
Bits per sample: 1
Bitrate: 5645 kbps
Codec: DSD64


Uncompressed SACD ISO size > 1,69 GB


Roxy Music - Japanese SHM-SACD Reissue Series '2015 (8x SACDs) [PS3 ISO + Hi-Res FLAC]

Roxy Music - Avalon (1982) [Japanese Limited SHM-SACD 2015]
PS3 Rip | SACD ISO | DSD64 2.0 > 1-bit/2.8224 MHz | 37:31 minutes | Scans included | 1,13 GB
or FLAC(converted with foobar2000 to tracks) 24bit/96 kHz | Full Scans included | 776 MB

Flesh + Blood suggested that Roxy Music were at the end of the line, but they regrouped and recorded the lovely Avalon, one of their finest albums. Certainly, the lush, elegant soundscapes of Avalon are far removed from the edgy avant-pop of their early records, yet it represents another landmark in their career. With its stylish, romantic washes of synthesizers and Bryan Ferry's elegant, seductive croon, Avalon simultaneously functioned as sophisticated make-out music for yuppies and as the maturation of synth pop. Ferry was never this romantic or seductive, either with Roxy or as a solo artist, and Avalon shimmers with elegance in both its music and its lyrics. "More Than This," "Take a Chance with Me," "While My Heart Is Still Beating," and the title track are immaculately crafted and subtle songs, where the shifting synthesizers and murmured vocals gradually reveal the melodies. It's a rich, textured album and a graceful way to end the band's career.

Tracklist:

01. More Than This
02. The Space Between
03. Avalon
04. India
05. While My Heart Is Still Beating
06. The Main Thing
07. Take A Chance With Me
08. To Turn You On
09. True To Life
10. Tara

DSD flat transferred from U.K. original analogue master tapes.
Edited in DSD by Manabu Matsumura at Universal Music Studios, Tokyo, in 2015.

foobar2000 1.4.3 / Dynamic Range Meter 1.1.1

––––––––––––––––––––––––––––––––––––––––
Analyzed: Roxy Music / Avalon
––––––––––––––––––––––––––––––––––––––––

DR Peak RMS Duration Track
––––––––––––––––––––––––––––––––––––––––
DR13 -4.95 dB -20.45 dB 4:31 01-More Than This
DR15 -4.36 dB -21.46 dB 4:31 02-The Space Between
DR14 -5.10 dB -20.71 dB 4:16 03-Avalon
DR13 -5.37 dB -21.77 dB 1:45 04-India
DR15 -5.46 dB -22.13 dB 3:27 05-While My Heart Is Still Beating
DR14 -3.83 dB -19.50 dB 3:53 06-The Main Thing
DR13 -5.32 dB -20.80 dB 4:43 07-Take A Chance With Me
DR12 -6.73 dB -21.67 dB 4:16 08-To Turn You On
DR13 -4.44 dB -19.11 dB 4:24 09-True To Life
DR11 -10.03 dB -24.85 dB 1:45 10-Tara
––––––––––––––––––––––––––––––––––––––––

Number of tracks: 10
Official DR value: DR13

Samplerate: 2822400 Hz / PCM Samplerate: 176400 Hz
Channels: 2
Bits per sample: 1
Bitrate: 5645 kbps
Codec: DSD64


Uncompressed SACD ISO size > 1,51 GB
>
Thanks to PS³SACD!

Bryan Ferry - Japanese SHM-SACD Reissue Series (6x SACDs)

>