Santana - Lotus (1974) [Japan 2017] 3x SACD ISO + Hi-Res FLAC

Posted By: HDAtall
Santana - Lotus (1974) [Japan 2017] 3x SACD ISO + Hi-Res FLAC

Santana - Lotus: The Complete Edition (1974/2017) [3x Japanese SACD ISO]
SACD Rip | SACD ISO | DSD64 2.0 & DST64 4.0 > 1-bit/2.8224 MHz | 156:58 minutes | Full Scans included | 9,74 GB
or FLAC 2.0 (converted with foobar2000 to tracks) 24bit/88,2 kHz | 157:02 mins | Full Scans included | 3,38 GB
Features Stereo & Quadrophonic Surround Sound | Re-Mixed in 2017 and reissued with 7 previously unreleased tracks

Recorded in Japan in July 1973, this massive, three-LP live album was available outside the United States in 1974 but held back from domestic release in the U.S. It features the same "New Santana Band" that recorded Welcome, and combines that group's jazz and spiritual influences with performances of earlier Latin rock favorites like "Oye Como Va".

Tracklist

DISC 1:
01 - Meditation
02 - Going Home
03 - A-1 Funk
04 - Every Step of the Way
05 - Black Magic Woman
06 - Gypsy Queen
07 - Oye Como Va
08 - Japan
09 - Bambele
10 - Um Um Um
11 - Yours Is the Light

foobar2000 1.3.15 / Dynamic Range Meter 1.1.1

––––––––––––––––––––––––––––––––––––––––
Analyzed: Santana / Lotus (Disc One)
––––––––––––––––––––––––––––––––––––––––

DR Peak RMS Duration Track
––––––––––––––––––––––––––––––––––––––––
DR14 -12.21 dB -46.64 dB 1:39 01-Meditation
DR11 -8.29 dB -29.37 dB 2:53 02-Going Home
DR9 -6.73 dB -26.27 dB 3:13 03-A-1 Funk
DR10 -5.80 dB -23.60 dB 11:29 04-Every Step of the Way
DR11 -7.32 dB -26.90 dB 3:37 05-Black Magic Woman
DR10 -6.08 dB -24.31 dB 3:58 06-Gypsy Queen
DR13 -6.54 dB -26.04 dB 5:45 07-Oye Como Va
DR14 -12.65 dB -35.81 dB 4:49 08-Japan
DR10 -5.78 dB -26.40 dB 4:52 09-Bambele
DR11 -5.87 dB -24.66 dB 6:51 10-Um Um Um
DR9 -8.10 dB -27.04 dB 5:34 11-Yours Is the Light
––––––––––––––––––––––––––––––––––––––––

Number of tracks: 11
Official DR value: DR11

Samplerate: 2822400 Hz / PCM Samplerate: 88200 Hz
Channels: 5
Bits per sample: 1
Bitrate: 14112 kbps
Codec: DST64
================================================================================

––––––––––––––––––––––––––––––––––––––––
Analyzed: Santana / Lotus
––––––––––––––––––––––––––––––––––––––––

DR Peak RMS Duration Track
––––––––––––––––––––––––––––––––––––––––
DR17 -12.44 dB -42.95 dB 1:39 01-Meditation
DR12 -7.91 dB -25.46 dB 2:53 02-Going Home
DR12 -6.79 dB -22.46 dB 3:13 03-A-1 Funk
DR11 -5.79 dB -19.58 dB 11:29 04-Every Step of the Way
DR12 -7.75 dB -23.15 dB 3:37 05-Black Magic Woman
DR12 -6.56 dB -20.41 dB 3:57 06-Gypsy Queen
DR12 -7.18 dB -22.35 dB 5:45 07-Oye Como Va
DR14 -12.53 dB -31.81 dB 4:49 08-Japan
DR12 -5.62 dB -21.92 dB 4:52 09-Bambele
DR11 -5.46 dB -20.17 dB 6:51 10-Um Um Um
DR11 -8.42 dB -23.39 dB 5:37 11-Yours Is the Light
––––––––––––––––––––––––––––––––––––––––

Number of tracks: 11
Official DR value: DR13

Samplerate: 2822400 Hz / PCM Samplerate: 88200 Hz
Channels: 2
Bits per sample: 1
Bitrate: 5645 kbps
Codec: DSD64



DISC 2:
01 - Batukada
02 - Xibaba (She-Ba-Ba)
03 - Stone Flower (Introduction)
04 - Waiting
05 - Castillos de Arena, Part 1 (Sand Castle)
06 - Free Angela
07 - Samba de Sausalito
08 - Mantra
09 - Kyoto
10 - Castillos de Arena, Part 2 (Sand Castle)
11 - Light of Life
12 - Se a Cabo

foobar2000 1.3.15 / Dynamic Range Meter 1.1.1

––––––––––––––––––––––––––––––––––––––––
Analyzed: Santana / Lotus (Disc Two)
––––––––––––––––––––––––––––––––––––––––

DR Peak RMS Duration Track
––––––––––––––––––––––––––––––––––––––––
DR9 -8.25 dB -28.69 dB 0:56 01-Batukada
DR9 -5.80 dB -25.23 dB 4:12 02-Xibaba (She-Ba-Ba)
DR9 -8.95 dB -26.71 dB 1:11 03-Stone Flower (Introduction)
DR10 -6.98 dB -26.77 dB 4:13 04-Waiting
DR9 -5.02 dB -24.05 dB 2:53 05-Castillos de Arena, Part 1 (Sand Castle)
DR10 -5.99 dB -26.66 dB 4:47 06-Free Angela
DR12 -5.99 dB -25.13 dB 3:34 07-Samba de Sausalito
DR11 -7.36 dB -27.11 dB 7:14 08-Mantra
DR14 -4.63 dB -28.90 dB 9:56 09-Kyoto
DR9 -5.74 dB -23.94 dB 1:13 10-Castillos de Arena, Part 2 (Sand Castle)
DR10 -6.40 dB -25.69 dB 3:29 11-Light of Life
DR13 -4.07 dB -24.89 dB 5:32 12-Se a Cabo
––––––––––––––––––––––––––––––––––––––––

Number of tracks: 12
Official DR value: DR10

Samplerate: 2822400 Hz / PCM Samplerate: 88200 Hz
Channels: 5
Bits per sample: 1
Bitrate: 14112 kbps
Codec: DST64
================================================================================

––––––––––––––––––––––––––––––––––––––––
Analyzed: Santana / Lotus
––––––––––––––––––––––––––––––––––––––––

DR Peak RMS Duration Track
––––––––––––––––––––––––––––––––––––––––
DR12 -8.82 dB -24.92 dB 0:56 01-Batukada
DR12 -6.30 dB -21.50 dB 4:12 02-Xibaba (She-Ba-Ba)
DR11 -9.31 dB -23.03 dB 1:11 03-Stone Flower (Introduction)
DR13 -7.18 dB -23.05 dB 4:13 04-Waiting
DR12 -5.20 dB -20.24 dB 2:53 05-Castillos de Arena, Part 1 (Sand Castle)
DR12 -6.39 dB -22.86 dB 4:47 06-Free Angela
DR12 -3.61 dB -21.11 dB 3:34 07-Samba de Sausalito
DR12 -7.15 dB -23.21 dB 7:15 08-Mantra
DR15 -4.81 dB -25.00 dB 9:56 09-Kyoto
DR11 -5.34 dB -19.86 dB 1:13 10-Castillos de Arena, Part 2 (Sand Castle)
DR12 -5.90 dB -21.33 dB 3:29 11-Light of Life
DR13 -4.28 dB -20.83 dB 5:30 12-Se a Cabo
––––––––––––––––––––––––––––––––––––––––

Number of tracks: 12
Official DR value: DR12

Samplerate: 2822400 Hz / PCM Samplerate: 88200 Hz
Channels: 2
Bits per sample: 1
Bitrate: 5645 kbps
Codec: DSD64



DISC 3:
01 - Samba Pa Ti
02 - Mr. Udo
03 - The Creator Has a Master Plan
04 - Savor
05 - Conga Solo
06 - Toussaint L'Overture
07 - Incident at Neshabur

foobar2000 1.3.15 / Dynamic Range Meter 1.1.1

––––––––––––––––––––––––––––––––––––––––
Analyzed: Santana / Lotus (Disc Three)
––––––––––––––––––––––––––––––––––––––––

DR Peak RMS Duration Track
––––––––––––––––––––––––––––––––––––––––
DR12 -7.26 dB -25.98 dB 9:33 01-Samba Pa Ti
DR10 -7.18 dB -27.61 dB 3:13 02-Mr. Udo
DR13 -10.59 dB -33.11 dB 9:02 03-The Creator Has a Master Plan
DR9 -5.36 dB -24.30 dB 4:14 04-Savor
DR11 -7.00 dB -29.97 dB 2:45 05-Conga Solo
DR12 -5.16 dB -24.47 dB 7:59 06-Toussaint L'Overture
DR13 -5.31 dB -25.84 dB 16:23 07-Incident at Neshabur
––––––––––––––––––––––––––––––––––––––––

Number of tracks: 7
Official DR value: DR11

Samplerate: 2822400 Hz / PCM Samplerate: 88200 Hz
Channels: 5
Bits per sample: 1
Bitrate: 14112 kbps
Codec: DST64
================================================================================

––––––––––––––––––––––––––––––––––––––––
Analyzed: Santana / Lotus
––––––––––––––––––––––––––––––––––––––––

DR Peak RMS Duration Track
––––––––––––––––––––––––––––––––––––––––
DR11 -6.85 dB -22.02 dB 9:33 01-Samba Pa Ti
DR13 -6.42 dB -23.85 dB 3:13 02-Mr. Udo
DR14 -10.45 dB -28.99 dB 9:02 03-The Creator Has a Master Plan
DR12 -4.97 dB -19.94 dB 4:14 04-Savor
DR13 -6.58 dB -25.64 dB 2:45 05-Conga Solo
DR12 -5.11 dB -20.45 dB 8:02 06-Toussaint L'Overture
DR13 -5.38 dB -21.75 dB 16:23 07-Incident at Neshabur
––––––––––––––––––––––––––––––––––––––––

Number of tracks: 7
Official DR value: DR13

Samplerate: 2822400 Hz / PCM Samplerate: 88200 Hz
Channels: 2
Bits per sample: 1
Bitrate: 5645 kbps
Codec: DSD64


LOTUS - Hybrid SACD 4.0 Complete 2017 Edition credits:
Direction: Yuichi Nakanishi at Sony Music Japan Intl.
Mixing & DSD Conversion by Tomoo Suzuki. Mastered by Akihiro Yoshikawa ae Dede Air Mastering.

ISO image created using sacd_extract and telnet AutoScript for Oppo BDP-105D.

Thanks to grillbrill!
Uncompressed SACD ISO size > 3,9 + 3,49 + 3,77 GB

Santana - Lotus (2xSACD, Audio Fidelity 2016)
>