Tags
Language
Tags
July 2024
Su Mo Tu We Th Fr Sa
30 1 2 3 4 5 6
7 8 9 10 11 12 13
14 15 16 17 18 19 20
21 22 23 24 25 26 27
28 29 30 31 1 2 3

Stéphanie Varnerin & L'Astrée - Opera Arias in Turin in 18th Century (2024) [Official Digital Download 24/96]

Posted By: delpotro
Stéphanie Varnerin & L'Astrée - Opera Arias in Turin in 18th Century (2024) [Official Digital Download 24/96]

Stéphanie Varnerin & L'Astrée - Opera Arias in Turin in 18th Century (2024)
FLAC (tracks) 24-bit/96 kHz | Front Cover & Digital Booklet | Time - 65:10 minutes | 1,2 GB
Classical, Opera, Vocal | Label: CPO, Official Digital Download

Beginning in the 1680s, with a considerable delay when considered in relation to the principal theatrical venues of the Italian Peninsula, the capital of Savoy finally gave up its resistance, surrendered to the opera, and in 1740 went so far as to provide itself with a theater, the Teatro Regio, that was worthy of immortalization in the pages of the Encyclopédie and obtained the status of a magnet for illustrious travelers and visitors. During the mid-1760s Joseph-Jérôme de Lalande regarded it as »the most studied, the best composed, the most complete that we see in Italy…the most richly and nobly decorated that there is in the modern genre.« Some years later it seemed to Charles Burney to be »very large and elegant« and worthy of being regarded among the most beautiful in Europe.

Tracklist:
01. La frascatana: Per voi visino amabile
02. La modista raggiratrice, ossia La scuffiara: Ecco assisa al botteghino
03. Argea: Placida riposa omai in lieta calma il mare
04. La Cascina: L’amante tortorella
05. La Cascina: Con cento pastorelli
06. Il pazzo glorioso: D’un novello ardor
07. Andromeda: Per placar gli astri tiranni
08. Il filosofo di campagna: Ogni anno passa un anno
09. Il filosofo di campagna: Una ragazza che non è pazza
10. La buona figliola: Vieni al mio seno
11. La schiava riconosciuta: Che tortora io sono
12. Adriano in Siria: Odo il tuono
13. Le Deserteur: Dans quel trouble
14. Zémire et Azor: Air de la fauvette

foobar2000 1.4.1 / Dynamic Range Meter 1.1.1
log date: 2024-01-20 09:53:43

––––––––––––––––––––––––––––––––––––––––
Analyzed: Stéphanie Varnerin / Opera Arias in Turin in 18th Century
––––––––––––––––––––––––––––––––––––––––

DR Peak RMS Duration Track
––––––––––––––––––––––––––––––––––––––––
DR15 -1.79 dB -21.28 dB 4:20 01-01 1. Per voi visino amabile
DR14 -0.87 dB -21.52 dB 3:54 02-02 2. Ecco assisa al botteghino
DR15 -1.25 dB -21.41 dB 6:19 03-03 3. Placida riposa omai in lieta calma il mare
DR16 -1.15 dB -21.10 dB 7:45 04-04 4. L’amante tortorella
DR14 -1.06 dB -20.31 dB 5:25 05-05 5. Con cento pastorelli
DR15 -1.75 dB -21.81 dB 3:15 06-06 6. D’un novello ardor
DR14 -1.39 dB -20.46 dB 3:05 07-07 7. Per placar gli astri tiranni
DR16 -1.29 dB -21.40 dB 2:48 08-08 8. Ogni anno passa un anno
DR14 -1.33 dB -20.29 dB 3:13 09-09 9. Una ragazza che non è pazza
DR14 -3.38 dB -23.33 dB 2:39 10-10 10. Vieni al mio seno
DR14 -0.98 dB -19.07 dB 5:46 11-11 11. Che tortora io sono
DR16 -1.19 dB -21.47 dB 5:56 12-12 12. Odo il tuono
DR15 -1.11 dB -19.90 dB 4:51 13-13 13. Dans quel trouble
DR14 -0.99 dB -18.76 dB 5:56 14-14 14. Air de la fauvette
––––––––––––––––––––––––––––––––––––––––

Number of tracks: 14
Official DR value: DR15

Samplerate: 96000 Hz
Channels: 2
Bits per sample: 24
Bitrate: 2634 kbps
Codec: FLAC
================================================================================


Thanks to the Original customer!