Tags
Language
Tags

Stevie Ray Vaughan and Double Trouble - MFSL Collection (5x SACD, 1983-1991) [PS3 ISO + Hi-Res FLAC]

Posted By: HDAtall
Stevie Ray Vaughan and Double Trouble - MFSL Collection (5x SACD, 1983-1991) [PS3 ISO + Hi-Res FLAC]

Stevie Ray Vaughan And Double Trouble - MFSL Collection (5x SACD, 1983-1991)
PS3 Rip | SACD ISO | DSD64 2.0 > 1-bit/2.8224 MHz | 197:20 minutes | Scans included | 6,23 GB
or FLAC (converted with foobar2000 to tracks) 24bit/96 kHz | Full Scans included | 4,75 GB
Mastered by Shawn R. Britton at Mobile Fidelity Sound Lab | MFSL's Reissues 2010-2011

Double Trouble is an American blues rock band from Austin, Texas, formed by guitarist/singer Stevie Ray Vaughan in 1978. The group was active throughout the 1980s and contributed to reviving the blues, inspiring many later blues and rock musicians. By the mid-1980s, they had become an international act, touring extensively around the world until August 1990, when Vaughan was killed in a helicopter crash after departing East Troy, Wisconsin.


Stevie Ray Vaughan and Double Trouble - MFSL Collection (5x SACD, 1983-1991) [PS3 ISO + Hi-Res FLAC]

Stevie Ray Vaughan And Double Trouble - Texas Flood (1983) [MFSL 2010]
PS3 Rip | SACD ISO | DSD64 2.0 > 1-bit/2.8224 MHz | 38:52 minutes | Scans included | 1,27 GB
or FLAC (converted with foobar2000 to tracks) 24bit/96 kHz | Full Scans included | 969 MB
Mobile Fidelity Sound Lab # UDSACD 2074

It's hard to overestimate the impact Stevie Ray Vaughan's debut, Texas Flood, had upon its release in 1983. At that point, blues was no longer hip, the way it was in the '60s. Texas Flood changed all that, climbing into the Top 40 and spending over half a year on the charts, which was practically unheard of for a blues recording. Vaughan became a genuine star and, in doing so, sparked a revitalization of the blues. This was a monumental impact, but his critics claimed that, no matter how prodigious Vaughan's instrumental talents were, he didn't forge a distinctive voice; instead, he wore his influences on his sleeve, whether it was Albert King's pinched yet muscular soloing or Larry Davis' emotive singing. There's a certain element of truth in that, but that was sort of the point of Texas Flood. Vaughan didn't hide his influences; he celebrated them, pumping fresh blood into a familiar genre. When Vaughan and Double Trouble cut the album over the course of three days in 1982, he had already played his set lists countless times; he knew how to turn this material inside out or goose it up for maximum impact. The album is paced like a club show, kicking off with Vaughan's two best self-penned songs, "Love Struck Baby" and "Pride and Joy," then settling into a pair of covers, the slow-burning title track and an exciting reading of Howlin' Wolf's "Tell Me," before building to the climax of "Dirty Pool" and "I'm Crying." Vaughan caps the entire thing with "Lenny," a lyrical, jazzy tribute to his wife. It becomes clear that Vaughan's true achievement was finding something personal and emotional by fusing different elements of his idols. Sometimes the borrowing was overt, and other times subtle, but it all blended together into a style that recalled the past while seizing the excitement and essence of the present.

Tracklist:

01. Love Struck Baby
02. Pride And Joy
03. Texas Flood
04. Tell Me
05. Testify
06. Rude Mood
07. Mary Had A Little Lamb
08. Dirty Pool
09. I'm Cryin'
10. Lenny

Mastered by Shawn R. Britton at Mobile Fidelity Sound Lab, Sebastopol, CA.

foobar2000 1.4.6 / Dynamic Range Meter 1.1.1

––––––––––––––––––––––––––––––––––––––––
Analyzed: STEVIE RAY VAUGHAN AND DOUBLE TROUBLE / TEXAS FLOOD
––––––––––––––––––––––––––––––––––––––––

DR Peak RMS Duration Track
––––––––––––––––––––––––––––––––––––––––
DR12 -6.04 dB -19.48 dB 2:24 01-Love Struck Baby
DR12 -6.32 dB -19.52 dB 3:40 02-Pride And Joy
DR14 -5.78 dB -21.19 dB 5:21 03-Texas Flood
DR13 -5.97 dB -19.44 dB 2:49 04-Tell Me
DR11 -6.10 dB -18.53 dB 3:23 05-Testify
DR12 -5.77 dB -20.40 dB 4:40 06-Rude Mood
DR14 -6.15 dB -21.06 dB 2:47 07-Mary Had A Little Lamb
DR13 -6.21 dB -20.74 dB 5:02 08-Dirty Pool
DR13 -5.95 dB -20.46 dB 3:47 09-I'm Cryin'
DR14 -7.60 dB -23.45 dB 4:58 10-Lenny
––––––––––––––––––––––––––––––––––––––––

Number of tracks: 10
Official DR value: DR13

Samplerate: 2822400 Hz / PCM Samplerate: 176400 Hz
Channels: 2
Bits per sample: 1
Bitrate: 5645 kbps
Codec: DSD64


Uncompressed SACD ISO size > 1,5 GB


Stevie Ray Vaughan and Double Trouble - MFSL Collection (5x SACD, 1983-1991) [PS3 ISO + Hi-Res FLAC]

Stevie Ray Vaughan And Double Trouble - Couldn't Stand The Weather (1984) [MFSL 2010]
PS3 Rip | SACD ISO | DSD64 2.0 > 1-bit/2.8224 MHz | 38:10 minutes | Scans included | 1,19 GB
or FLAC (converted with foobar2000 to tracks) 24bit/96 kHz | Full Scans included | 931 MB
Mobile Fidelity Sound Lab # UDSACD 2075

Stevie Ray Vaughan's second album, Couldn't Stand the Weather, pretty much did everything a second album should do: it confirmed that the acclaimed debut was no fluke, while matching, if not bettering, the sales of its predecessor, thereby cementing Vaughan's status as a giant of modern blues. So why does it feel like a letdown? Perhaps because it simply offers more of the same, all the while relying heavily on covers. Of the eight songs, half are covers, while two of his four originals are instrumentals – not necessarily a bad thing, but it gives the impression that Vaughan threw the album together in a rush, even if he didn't. Nevertheless, Couldn't Stand the Weather feels a bit like a holding pattern, since there's no elaboration on Double Trouble's core sound and no great strides forward, whether it's in Vaughan's songwriting or musicianship. Still, as holding patterns go, it's a pretty enjoyable one, since Vaughan and Double Trouble play spiritedly throughout the record. With its swaggering, stuttering riff, the title track ranks as one of Vaughan's classics, and thanks to a nuanced vocal, he makes W.C. Clark's "Cold Shot" his own. The instrumentals – the breakneck Lonnie Mack-styled "Scuttle Buttin'" and "Stang's Swang," another effective demonstration of Vaughan's jazz inclinations – work well, even if the original shuffle "Honey Bee" fails to make much of an impression and the cover of "Voodoo Chile (Slight Return)" is too reminiscent of Jimi Hendrix's original. So, there aren't many weaknesses on the record, aside from the suspicion that Vaughan didn't really push himself as hard as he could have, and the feeling that if he had, he would have come up with something a bit stronger.

Tracklist:

01. Scuttle Buttin'
02. Couldn't Stand The Weather
03. The Things (That) I Used To Do
04. Voodoo Chile (Slight Return)
05. Cold Shot
06. Tin Pan Alley (aka Roughest Place In Town)
07. Honey Bee
08. Stang's Swang

Mastered by Shawn R. Britton at Mobile Fidelity Sound Lab, Sebastopol, CA.

foobar2000 1.4.6 / Dynamic Range Meter 1.1.1

––––––––––––––––––––––––––––––––––––––––
Analyzed: Stevie Ray Vaughan & Double Trouble / Couldn't Stand The Weather
––––––––––––––––––––––––––––––––––––––––

DR Peak RMS Duration Track
––––––––––––––––––––––––––––––––––––––––
DR14 -6.38 dB -21.83 dB 1:52 01-Scuttle Buttin'
DR13 -5.88 dB -20.88 dB 4:41 02-Couldn't Stand The Weather
DR11 -6.98 dB -19.19 dB 4:55 03-The Things (That) I Used To Do
DR10 -6.45 dB -18.46 dB 8:01 04-Voodoo Chile (Slight Return)
DR12 -6.26 dB -19.91 dB 4:01 05-Cold Shot
DR16 -5.80 dB -24.16 dB 9:11 06-Tin Pan Alley (aka Roughest Place In Town)
DR12 -6.02 dB -19.72 dB 2:43 07-Honey Bee
DR12 -6.05 dB -20.80 dB 2:46 08-Stang's Swang
––––––––––––––––––––––––––––––––––––––––

Number of tracks: 8
Official DR value: DR13

Samplerate: 2822400 Hz / PCM Samplerate: 176400 Hz
Channels: 2
Bits per sample: 1
Bitrate: 5645 kbps
Codec: DSD64


Uncompressed SACD ISO size > 1,53 GB


Stevie Ray Vaughan and Double Trouble - MFSL Collection (5x SACD, 1983-1991) [PS3 ISO + Hi-Res FLAC]

Stevie Ray Vaughan And Double Trouble - Soul To Soul (1985) [MFSL 2011]
PS3 Rip | SACD ISO | DSD64 2.0 > 1-bit/2.8224 MHz | 40:15 minutes | Scans included | 1,29 GB
or FLAC (converted with foobar2000 to tracks) 24bit/96 kHz | Full Scans included | 1027 MB
Mobile Fidelity Sound Lab # UDSACD 2076

By adding two members to Double Trouble – keyboardist Reese Wynans and saxophonist Joe Sublett – Stevie Ray Vaughan indicated he wanted to add soul and R&B inflections to his basic blues sound, and Soul to Soul does exactly that. It's still a modern blues album, yet it has a wider sonic palette, finding Vaughan fusing a variety of blues, rock, and R&B styles. Most of this is done through covers – notably Hank Ballard's "Look at Little Sister," the exquisitely jazzy "Gone Home," and Doyle Bramhall's impassioned soul-blues "Change It" – but Vaughan's songwriting occasionally follows suit, as well. Even if only the tortured blues wailer "Ain't Gone 'n' Give Up on Love" entered his acknowledged canon, he throws in some delightful soul-funk touches on "Say What!," the instrumental wah-wah workout that kicks off the album, and the Curtis Mayfield-inspired closer, "Life Without You," captures Vaughan at his best as a composer and performer. It's such a seductive number – such a full realization of his soul-blues ambitions – that the rest of the album pales in comparison. In fact, for all of its positive attributes, Soul to Soul winds up being less than the sum of its parts, and it's hard to pinpoint an exact reason why. Perhaps it was because Vaughan was on the verge of a horrible battle with substance abuse at the time of recording or perhaps it just has that unevenness inherent in transitional albums. Still, he has good taste in covers, his originals are sturdy, and there's not a bad performance here, so Soul to Soul winds up enjoyable in spite of its flaws, and it clearly points the way to his 1989 masterpiece, In Step.

Tracklist:

01. Say What!
02. Lookin' Out The Window
03. Look At Little Sister
04. Ain't Gone 'N' Give Up On Love
05. Gone Home
06. Change It
07. You'll Be Mine
08. Empty Arms
09. Come On (Part III)
10. Life Without You

Mastered by Shawn R. Britton at Mobile Fidelity Sound Lab, Sebastopol, CA.

foobar2000 1.4.6 / Dynamic Range Meter 1.1.1

––––––––––––––––––––––––––––––––––––––––
Analyzed: Stevie Ray Vaughan & Double Trouble / Soul To Soul
––––––––––––––––––––––––––––––––––––––––

DR Peak RMS Duration Track
––––––––––––––––––––––––––––––––––––––––
DR13 -6.01 dB -20.08 dB 5:23 01-Say What!
DR13 -6.14 dB -20.60 dB 2:49 02-Lookin' Out The Window
DR12 -6.07 dB -18.95 dB 3:09 03-Look At Little Sister
DR14 -5.85 dB -22.51 dB 6:08 04-Ain't Gone 'N' Give Up On Love
DR14 -5.98 dB -22.68 dB 3:08 05-Gone Home
DR12 -6.17 dB -19.48 dB 3:58 06-Change It
DR12 -5.87 dB -18.66 dB 3:46 07-You'll Be Mine
DR12 -6.42 dB -20.73 dB 3:04 08-Empty Arms
DR13 -4.96 dB -20.64 dB 4:32 09-Come On (Part III)
DR12 -7.56 dB -22.67 dB 4:18 10-Life Without You
––––––––––––––––––––––––––––––––––––––––

Number of tracks: 10
Official DR value: DR13

Samplerate: 2822400 Hz / PCM Samplerate: 176400 Hz
Channels: 2
Bits per sample: 1
Bitrate: 5645 kbps
Codec: DSD64


Uncompressed SACD ISO size > 1,61 GB


Stevie Ray Vaughan and Double Trouble - MFSL Collection (5x SACD, 1983-1991) [PS3 ISO + Hi-Res FLAC]

Stevie Ray Vaughan And Double Trouble - In Step (1989) [MFSL 2011]
PS3 Rip | SACD ISO | DSD64 2.0 > 1-bit/2.8224 MHz | 41:09 minutes | Scans included | 1,31 GB
or FLAC (converted with foobar2000 to tracks) 24bit/96 kHz | Full Scans included | 1022 MB
Mobile Fidelity Sound Lab # UDSACD 2077

Stevie Ray Vaughan had always been a phenomenal guitarist, but prior to In Step, his songwriting was hit or miss. Even when he wrote a classic modern blues song, it was firmly within the genre's conventions; only on Soul to Soul's exquisite soul-blues "Life Without You" did he attempt to stretch the boundaries of the form. As it turns out, that was the keynote for In Step, an album where Vaughan found his own songwriting voice, blending blues, soul, and rock in unique ways, and writing with startling emotional honesty. Yes, there are a few covers, all well chosen, but the heart of the album rests in the songs he co-wrote with Doyle Bramhall, the man who penned the Soul to Soul highlight "Change It." Bramhall proved to be an ideal collaborator for Vaughan; tunes like the terse "Tightrope" and the dense "Wall of Denial" feel so intensely personal, it's hard to believe that they weren't the product of just one man. Yet the lighter numbers – the dynamite boogie "The House Is Rockin'" and the breakneck blues of "Scratch-n-Sniff" – are just as effective as songs. Of course, he didn't need words to make effective music: "Travis Walk" is a blistering instrumental, complete with intricate fingerpicking reminiscent of the great country guitarist Merle Travis, while the shimmering "Riviera Paradise" is every bit as lyrical and lovely as his previous charmer, "Lenny." The magnificent thing about In Step is how it's fully realized, presenting every facet of Vaughan's musical personality, yet it still soars with a sense of discovery. It's a bittersweet triumph, given Vaughan's tragic death a little over a year after its release, yet it's a triumph all the same.

Tracklist:

01. If The House Is Rockin'
02. Crossfire
03. Tightrope
04. Let Me Love You Baby
05. Leave My Girl Alone
06. Travis Walk
07. Wall of Denial
08. Scratch-N-Sniff
09. Love Me Darlin'
10. Riviera Paradise

Mastered by Shawn R. Britton at Mobile Fidelity Sound Lab, Sebastopol, CA.

foobar2000 1.4.6 / Dynamic Range Meter 1.1.1

––––––––––––––––––––––––––––––––––––––––
Analyzed: STEVIE RAY VAUGHAN & DOUBLE TROUBLE / IN STEP
––––––––––––––––––––––––––––––––––––––––

DR Peak RMS Duration Track
––––––––––––––––––––––––––––––––––––––––
DR13 -6.10 dB -20.22 dB 2:24 01-If The House Is Rockin'
DR14 -6.15 dB -21.64 dB 4:11 02-Crossfire
DR15 -6.10 dB -22.22 dB 4:41 03-Tightrope
DR13 -5.79 dB -20.42 dB 2:44 04-Let Me Love You Baby
DR14 -5.90 dB -21.40 dB 4:16 05-Leave My Girl Alone
DR14 -6.06 dB -21.39 dB 2:21 06-Travis Walk
DR14 -6.25 dB -21.89 dB 5:37 07-Wall of Denial
DR13 -6.08 dB -19.90 dB 2:43 08-Scratch-N-Sniff
DR13 -5.84 dB -20.32 dB 3:21 09-Love Me Darlin'
DR16 -7.11 dB -25.11 dB 8:50 10-Riviera Paradise
––––––––––––––––––––––––––––––––––––––––

Number of tracks: 10
Official DR value: DR14

Samplerate: 2822400 Hz / PCM Samplerate: 176400 Hz
Channels: 2
Bits per sample: 1
Bitrate: 5645 kbps
Codec: DSD64


Uncompressed SACD ISO size > 1,65 GB


Stevie Ray Vaughan and Double Trouble - MFSL Collection (5x SACD, 1983-1991) [PS3 ISO + Hi-Res FLAC]

Stevie Ray Vaughan And Double Trouble - The Sky Is Crying (1991) [MFSL 2011]
PS3 Rip | SACD ISO | DSD64 2.0 > 1-bit/2.8224 MHz | 38:48 minutes | Scans included | 1,19 GB
or FLAC (converted with foobar2000 to tracks) 24bit/96 kHz | Full Scans included | 920 MB
Mobile Fidelity Sound Lab # UDSACD 2078

The posthumously assembled ten-track outtakes collection The Sky Is Crying actually proves to be one of Stevie Ray Vaughan's most consistent albums, rivaling In Step as the best outside of the Greatest Hits collection. These songs were recorded in sessions spanning from 1984's Couldn't Stand the Weather to 1989's In Step and were left off of the LPs for whatever reason (or, in the case of Soul to Soul's "Empty Arms," a different version was used). What makes the record work is its eclectic diversity – Vaughan plays slide guitar on "Boot Hill" and acoustic on "Life by the Drop"; he smokes on the slow blues of "May I Have a Talk With You" and the title track just as much as on the up-tempo Lonnie Mack cover, "Wham"; and he shows the jazzy side of his playing on Hendrix's "Little Wing" and Kenny Burrell's "Chitlins Con Carne." But it's not just musical diversity that makes the record work, it's also Vaughan's emotional range. From the morbidly dark "Boot Hill" to the lilting "Little Wing" to the exuberant tributes to his influences – Lonnie Mack on "Wham" and Albert King on "The Sky Is Crying" – Vaughan makes the material resonate, and in light of his death, "The Sky Is Crying" and the touching survivor-story ballad "Life by the Drop" are two of the most moving moments in Vaughan's oeuvre.

Tracklist:

01. Boot Hill
02. The Sky Is Crying
03. Empty Arms
04. Little Wing
05. Wham!
06. May I Have A Talk With You?
07. Close To You
08. Chitlins Con Carne
09. So Excited
10. Life By The Drop

Mastered by Shawn R. Britton at Mobile Fidelity Sound Lab, Sebastopol, CA.

foobar2000 1.4.6 / Dynamic Range Meter 1.1.1

––––––––––––––––––––––––––––––––––––––––
Analyzed: STEVIE RAY VAUGHAN & DOUBLE TROUBLE / THE SKY IS CRYING
––––––––––––––––––––––––––––––––––––––––

DR Peak RMS Duration Track
––––––––––––––––––––––––––––––––––––––––
DR12 -6.01 dB -19.42 dB 2:16 01-Boot Hill
DR13 -6.01 dB -20.94 dB 4:38 02-The Sky Is Crying
DR13 -5.82 dB -20.07 dB 3:31 03-Empty Arms
DR13 -6.25 dB -22.70 dB 6:51 04-Little Wing
DR13 -5.76 dB -19.57 dB 2:28 05-Wham!
DR16 -6.01 dB -22.97 dB 5:51 06-May I Have A Talk With You?
DR12 -5.81 dB -19.10 dB 3:14 07-Close To You
DR14 -5.98 dB -22.78 dB 3:59 08-Chitlins Con Carne
DR13 -5.88 dB -20.55 dB 3:33 09-So Excited
DR11 -6.25 dB -20.69 dB 2:27 10-Life By The Drop
––––––––––––––––––––––––––––––––––––––––

Number of tracks: 10
Official DR value: DR13

Samplerate: 2822400 Hz / PCM Samplerate: 176400 Hz
Channels: 2
Bits per sample: 1
Bitrate: 5645 kbps
Codec: DSD64


Uncompressed SACD ISO size > 1,55 GB
*
Thanks to bambasm!
>