Stevie Ray Vaughan And Double Trouble - Texas Hurricane (2014) [APO SACD Boxset] PS3 ISO + Hi-Res FLAC / RE-UP

Posted By: HDAtall
Stevie Ray Vaughan And Double Trouble - Texas Hurricane (2014) [APO SACD Boxset] PS3 ISO + Hi-Res FLAC / RE-UP

Stevie Ray Vaughan And Double Trouble - Texas Hurricane (2014) [APO SACD Boxset]
PS3 Rip | 6x SACD ISO | DSD64 2.0 > 1-bit/2.8224 MHz | 320:52 mins | Scans included | ~ 9,2 GB
or FLAC(converted with foobar2000 to tracks) 24bit/88,2 kHz | Full Scans included | ~ 6,8 GB

With his astonishingly accomplished guitar playing, Stevie Ray Vaughan ignited the blues revival of the '80s. Vaughan drew equally from bluesmen like Albert King, Otis Rush and Hubert Sumlin and rock & roll players like Jimi Hendrix and Lonnie Mack, as well as the stray jazz guitarist like Kenny Burrell, developing a uniquely eclectic and fiery style that sounded like no other guitarist, regardless of genre. Vaughan bridged the gap between blues and rock like no other artist had since the late '60s. For about seven years, Stevie Ray Vaughan was the leading light in American blues, consistently selling out concerts while his albums regularly went gold. His tragic death in 1990 only emphasized his influence in blues and American rock & roll. This is classic Stevie Ray Vaughan, meticulously remastered from the analog tapes by New York's Sterling Sound. In each set you'll receive Texas Flood, Couldn't Stand the Weather, Soul to Soul, In Step, plus the posthumous classics Family Style and The Sky Is Crying.

About this reissue from Analogue Productions
We've gone completely all-out for this project. We've used the original 30 inches-per-second, half-inch analog master tapes for all of these studio albums as well as for the bonus tracks included on the SACDs. Ryan Smith at Sterling Sound cut the lacquers for the LPs using the ultimate VMS 80 cutting lathe. Gary Salstrom handled the plating and the vinyl was pressed of course at Quality Record Pressings. Andy Aledort, senior editor for Guitar World, wrote the liners with contributions from Stevie Ray Vaughan biographer Craig Hopkins. This set includes a deluxe booklet. And all of the records are housed in a deluxe box. This box set will exceed your expectations, whether you're an LP or SACD enthusiast. We guarantee it.


Stevie Ray Vaughan And Double Trouble - Texas Hurricane (2014) [APO SACD Boxset] PS3 ISO + Hi-Res FLAC / RE-UP

Stevie Ray Vaughan And Double Trouble - Texas Flood (1983) [APO Remaster 2014]
PS3 Rip | SACD ISO | DSD64 2.0 > 1-bit/2.8224 MHz | 59:07 minutes | Scans included | 1,66 GB
or FLAC(converted with foobar2000 to tracks) 24bit/88,2 kHz | Full Scans included | 1,26 GB

It's hard to overestimate the impact Stevie Ray Vaughan's debut, Texas Flood, had upon its release in 1983. At that point, blues was no longer hip, the way it was in the '60s. Texas Flood changed all that, climbing into the Top 40 and spending over half a year on the charts, which was practically unheard of for a blues recording. Vaughan became a genuine star and, in doing so, sparked a revitalization of the blues. This was a monumental impact, but his critics claimed that, no matter how prodigious Vaughan's instrumental talents were, he didn't forge a distinctive voice; instead, he wore his influences on his sleeve, whether it was Albert King's pinched yet muscular soloing or Larry Davis' emotive singing. There's a certain element of truth in that, but that was sort of the point of Texas Flood. Vaughan didn't hide his influences; he celebrated them, pumping fresh blood into a familiar genre. When Vaughan and Double Trouble cut the album over the course of three days in 1982, he had already played his set lists countless times; he knew how to turn this material inside out or goose it up for maximum impact. The album is paced like a club show, kicking off with Vaughan's two best self-penned songs, "Love Struck Baby" and "Pride and Joy," then settling into a pair of covers, the slow-burning title track and an exciting reading of Howlin' Wolf's "Tell Me," before building to the climax of "Dirty Pool" and "I'm Crying." Vaughan caps the entire thing with "Lenny," a lyrical, jazzy tribute to his wife. It becomes clear that Vaughan's true achievement was finding something personal and emotional by fusing different elements of his idols. Sometimes the borrowing was overt, and other times subtle, but it all blended together into a style that recalled the past while seizing the excitement and essence of the present.

Tracklist:

01. Love Struck Baby
02. Pride And Joy
03. Texas Flood
04. Tell Me
05. Testify
06. Rude Mood
07. Mary Had A Little Lamb
08. Dirty Pool
09. I'm Cryin'
10. Lenny
11. SRV Speaks
12. Tin Pan Alley (aka Roughest Place In Town)
13. Testify (Live)
14. Mary Had A Little Lamb (Live)
15. Wham! (Live)

foobar2000 1.3.11 / Dynamic Range Meter 1.1.1

––––––––––––––––––––––––––––––––––––––––
Analyzed: Stevie Ray Vaughan / Texas Flood
––––––––––––––––––––––––––––––––––––––––

DR Peak RMS Duration Track
––––––––––––––––––––––––––––––––––––––––
DR12 -8.53 dB -22.29 dB 2:24 01-Love Struck Baby
DR12 -7.77 dB -21.73 dB 3:41 02-Pride And Joy
DR14 -8.24 dB -22.83 dB 5:22 03-Texas Flood
DR13 -6.14 dB -20.77 dB 2:49 04-Tell Me
DR11 -8.88 dB -20.90 dB 3:25 05-Testify
DR12 -8.67 dB -22.82 dB 4:41 06-Rude Mood
DR14 -7.78 dB -22.86 dB 2:48 07-Mary Had A Little Lamb
DR13 -6.89 dB -21.81 dB 5:03 08-Dirty Pool
DR13 -7.94 dB -22.65 dB 3:48 09-I'm Cryin'
DR16 -8.62 dB -26.50 dB 4:59 10-Lenny
DR12 -12.83 dB -28.53 dB 0:37 11-SRV Speaks
DR14 -7.77 dB -25.04 dB 7:43 12-Tin Pan Alley
DR13 -7.32 dB -21.64 dB 3:54 13-Testify (Live)
DR13 -8.51 dB -23.09 dB 3:31 14-Mary Had A Little Lamb (Live)
DR11 -8.30 dB -21.17 dB 4:24 15-Wham! (Live)
––––––––––––––––––––––––––––––––––––––––

Number of tracks: 15
Official DR value: DR13

Samplerate: 2822400 Hz / PCM Samplerate: 88200 Hz
Channels: 2
Bits per sample: 24
Bitrate: 5645 kbps
Codec: DSD64


Uncompressed SACD ISO size > 2,37 GB


Stevie Ray Vaughan And Double Trouble - Texas Hurricane (2014) [APO SACD Boxset] PS3 ISO + Hi-Res FLAC / RE-UP

Stevie Ray Vaughan And Double Trouble - Couldn't Stand The Weather (1984) [APO Remaster 2014]
PS3 Rip | SACD ISO | DSD64 2.0 > 1-bit/2.8224 MHz | 54:58 minutes | Scans included | 1,62 GB
or FLAC(converted with foobar2000 to tracks) 24bit/88,2 kHz | Full Scans included | 1,15 GB

Stevie Ray Vaughan's second album, Couldn't Stand the Weather, pretty much did everything a second album should do: it confirmed that the acclaimed debut was no fluke, while matching, if not bettering, the sales of its predecessor, thereby cementing Vaughan's status as a giant of modern blues. So why does it feel like a letdown? Perhaps because it simply offers more of the same, all the while relying heavily on covers. Of the eight songs, half are covers, while two of his four originals are instrumentals – not necessarily a bad thing, but it gives the impression that Vaughan threw the album together in a rush, even if he didn't. Nevertheless, Couldn't Stand the Weather feels a bit like a holding pattern, since there's no elaboration on Double Trouble's core sound and no great strides forward, whether it's in Vaughan's songwriting or musicianship. Still, as holding patterns go, it's a pretty enjoyable one, since Vaughan and Double Trouble play spiritedly throughout the record. With its swaggering, stuttering riff, the title track ranks as one of Vaughan's classics, and thanks to a nuanced vocal, he makes W.C. Clark's "Cold Shot" his own. The instrumentals – the breakneck Lonnie Mack-styled "Scuttle Buttin'" and "Stang's Swang," another effective demonstration of Vaughan's jazz inclinations – work well, even if the original shuffle "Honey Bee" fails to make much of an impression and the cover of "Voodoo Chile (Slight Return)" is too reminiscent of Jimi Hendrix's original. So, there aren't many weaknesses on the record, aside from the suspicion that Vaughan didn't really push himself as hard as he could have, and the feeling that if he had, he would have come up with something a bit stronger.
Tracklist:

01. Scuttle Buttin'
02. Couldn't Stand The Weather
03. The Things (That) I Used To Do
04. Voodoo Child (Slight Return)
05. Cold Shot
06. Tin Pan Alley (aka Roughest Place In Town)
07. Honey Bee
08. Stang's Swang
09. SRV Speaks
10. Hide Away
11. Look At Little Sister
12. Give Me Back My Wig
13. Come On (Pt. III)

foobar2000 1.3.11 / Dynamic Range Meter 1.1.1

––––––––––––––––––––––––––––––––––––––––
Analyzed: Stevie Ray Vaughan / Couldn't Stand The Weather
––––––––––––––––––––––––––––––––––––––––

DR Peak RMS Duration Track
––––––––––––––––––––––––––––––––––––––––
DR14 -7.36 dB -22.91 dB 1:53 01-Scuttle Buttin'
DR14 -6.39 dB -21.84 dB 4:42 02-Couldn't Stand The Weather
DR12 -8.12 dB -22.25 dB 4:56 03-The Things (That) I Used To Do
DR12 -6.52 dB -20.59 dB 8:01 04-Voodoo Child (Slight Return)
DR13 -7.25 dB -21.10 dB 4:02 05-Cold Shot
DR16 -6.03 dB -23.73 dB 9:12 06-Tin Pan Alley (aka Roughest Place In Town)
DR12 -6.33 dB -20.06 dB 2:43 07-Honey Bee
DR13 -7.09 dB -22.55 dB 2:48 08-Stang's Swang
DR12 -10.61 dB -27.78 dB 1:08 09-SRV Speaks
DR12 -6.89 dB -19.96 dB 4:04 10-Hide Away
DR11 -8.10 dB -20.52 dB 2:46 11-Look At Little Sister
DR12 -7.60 dB -19.68 dB 4:07 12-Give Me Back My Wig
DR12 -6.77 dB -19.75 dB 4:37 13-Come On (Pt. III)
––––––––––––––––––––––––––––––––––––––––

Number of tracks: 13
Official DR value: DR13

Samplerate: 2822400 Hz / PCM Samplerate: 88200 Hz
Channels: 2
Bits per sample: 24
Bitrate: 5645 kbps
Codec: DSD64


Uncompressed SACD ISO size > 2,2 GB


Stevie Ray Vaughan And Double Trouble - Texas Hurricane (2014) [APO SACD Boxset] PS3 ISO + Hi-Res FLAC / RE-UP

Stevie Ray Vaughan And Double Trouble - Soul To Soul (1985) [APO Remaster 2014]
PS3 Rip | SACD ISO | DSD64 2.0 > 1-bit/2.8224 MHz | 57:14 minutes | Scans included | 1,64 GB
or FLAC(converted with foobar2000 to tracks) 24bit/88,2 kHz | Full Scans included | 1,24 GB

By adding two members to Double Trouble – keyboardist Reese Wynans and saxophonist Joe Sublett – Stevie Ray Vaughan indicated he wanted to add soul and R&B inflections to his basic blues sound, and Soul to Soul does exactly that. It's still a modern blues album, yet it has a wider sonic palette, finding Vaughan fusing a variety of blues, rock, and R&B styles. Most of this is done through covers – notably Hank Ballard's "Look at Little Sister," the exquisitely jazzy "Gone Home," and Doyle Bramhall's impassioned soul-blues "Change It" – but Vaughan's songwriting occasionally follows suit, as well. Even if only the tortured blues wailer "Ain't Gone 'n' Give Up on Love" entered his acknowledged canon, he throws in some delightful soul-funk touches on "Say What!," the instrumental wah-wah workout that kicks off the album, and the Curtis Mayfield-inspired closer, "Life Without You," captures Vaughan at his best as a composer and performer. It's such a seductive number – such a full realization of his soul-blues ambitions – that the rest of the album pales in comparison. In fact, for all of its positive attributes, Soul to Soul winds up being less than the sum of its parts, and it's hard to pinpoint an exact reason why. Perhaps it was because Vaughan was on the verge of a horrible battle with substance abuse at the time of recording or perhaps it just has that unevenness inherent in transitional albums. Still, he has good taste in covers, his originals are sturdy, and there's not a bad performance here, so Soul to Soul winds up enjoyable in spite of its flaws, and it clearly points the way to his 1989 masterpiece, In Step.

Tracklist:

01. Say What!
02. Lookin' Out The Window
03. Look At Little Sister
04. Ain't Gone 'n Give Up On Love
05. Gone Home
06. Change It
07. You'll Be Mine
08. Empty Arms
09. Come On (Part III)
10. Life Without You
11. SRV Speaks
12. Little Wing / Third Stone From The Sun
13. Slip Slidin' Slim

foobar2000 1.3.11 / Dynamic Range Meter 1.1.1

––––––––––––––––––––––––––––––––––––––––
Analyzed: Stevie Ray Vaughan / Soul To Soul
––––––––––––––––––––––––––––––––––––––––

DR Peak RMS Duration Track
––––––––––––––––––––––––––––––––––––––––
DR13 -7.11 dB -21.27 dB 5:24 01-Say What!
DR13 -6.97 dB -21.71 dB 2:49 02-Lookin' Out The Window
DR12 -7.05 dB -20.02 dB 3:09 03-Look At Little Sister
DR13 -6.43 dB -22.46 dB 6:08 04-Ain't Gone 'n Give Up On Love
DR14 -6.29 dB -23.91 dB 3:08 05-Gone Home
DR12 -8.16 dB -21.82 dB 3:58 06-Change It
DR12 -5.98 dB -19.97 dB 3:46 07-You'll Be Mine
DR12 -8.10 dB -22.16 dB 3:04 08-Empty Arms
DR14 -6.16 dB -21.42 dB 4:31 09-Come On (Part III)
DR11 -10.51 dB -23.99 dB 4:18 10-Life Without You
DR14 -10.35 dB -29.11 dB 1:41 11-SRV Speaks
DR13 -5.99 dB -21.14 dB 13:32 12-Little Wing / Third Stone From The Sun
DR11 -6.57 dB -19.63 dB 1:45 13-Slip Slidin' Slim
––––––––––––––––––––––––––––––––––––––––

Number of tracks: 13
Official DR value: DR13

Samplerate: 2822400 Hz / PCM Samplerate: 88200 Hz
Channels: 2
Bits per sample: 24
Bitrate: 5645 kbps
Codec: DSD64


Uncompressed SACD ISO size > 2,29 GB


Stevie Ray Vaughan And Double Trouble - Texas Hurricane (2014) [APO SACD Boxset] PS3 ISO + Hi-Res FLAC / RE-UP

Stevie Ray Vaughan And Double Trouble - In Step (1989) [APO Remaster 2014]
PS3 Rip | SACD ISO | DSD64 2.0 > 1-bit/2.8224 MHz | 70:03 minutes | Scans included | 1,98 GB
or FLAC(converted with foobar2000 to tracks) 24bit/88,2 kHz | Full Scans included | 1,5 GB

Stevie Ray Vaughan had always been a phenomenal guitarist, but prior to In Step, his songwriting was hit or miss. Even when he wrote a classic modern blues song, it was firmly within the genre's conventions; only on Soul to Soul's exquisite soul-blues "Life Without You" did he attempt to stretch the boundaries of the form. As it turns out, that was the keynote for In Step, an album where Vaughan found his own songwriting voice, blending blues, soul, and rock in unique ways, and writing with startling emotional honesty. Yes, there are a few covers, all well chosen, but the heart of the album rests in the songs he co-wrote with Doyle Bramhall, the man who penned the Soul to Soul highlight "Change It." Bramhall proved to be an ideal collaborator for Vaughan; tunes like the terse "Tightrope" and the dense "Wall of Denial" feel so intensely personal, it's hard to believe that they weren't the product of just one man. Yet the lighter numbers – the dynamite boogie "The House Is Rockin'" and the breakneck blues of "Scratch-n-Sniff" – are just as effective as songs. Of course, he didn't need words to make effective music: "Travis Walk" is a blistering instrumental, complete with intricate fingerpicking reminiscent of the great country guitarist Merle Travis, while the shimmering "Riviera Paradise" is every bit as lyrical and lovely as his previous charmer, "Lenny." The magnificent thing about In Step is how it's fully realized, presenting every facet of Vaughan's musical personality, yet it still soars with a sense of discovery. It's a bittersweet triumph, given Vaughan's tragic death a little over a year after its release, yet it's a triumph all the same.

Tracklist:

01. The House Is A Rockin'
02. Crossfire
03. Tightrope
04. Let Me Love You Baby
05. Leave My Girl Alone
06. Travis Walk
07. Wall Of Denial
08. Scratch - N - Sniff
09. Love Me Darlin'
10. Riviera Paradise
11. SRV Speaks
12. The House Is A Rockin (Live)
13. Let Me Love You Baby (Live)
14. Texas Flood (Live)
15. Life Without You (Live)

foobar2000 1.3.11 / Dynamic Range Meter 1.1.1

––––––––––––––––––––––––––––––––––––––––
Analyzed: Stevie Ray Vaughan / In Step
––––––––––––––––––––––––––––––––––––––––

DR Peak RMS Duration Track
––––––––––––––––––––––––––––––––––––––––
DR13 -7.97 dB -22.05 dB 2:24 01-The House Is A Rockin'
DR15 -6.29 dB -22.53 dB 4:11 02-Crossfire
DR15 -7.46 dB -23.59 dB 4:41 03-Tightrope
DR14 -7.39 dB -22.53 dB 2:44 04-Let Me Love You Baby
DR14 -8.23 dB -23.68 dB 4:16 05-Leave My Girl Alone
DR15 -6.13 dB -22.67 dB 2:21 06-Travis Walk
DR14 -7.33 dB -22.76 dB 5:36 07-Wall Of Denial
DR13 -7.17 dB -21.66 dB 2:43 08-Scratch - N - Sniff
DR13 -9.22 dB -22.86 dB 3:21 09-Love Me Darlin'
DR16 -7.47 dB -25.39 dB 8:49 10-Riviera Paradise
DR12 -11.42 dB -27.87 dB 1:34 11-SRV Speaks
DR11 -8.92 dB -21.07 dB 2:48 12-The House Is A Rockin (Live)
DR11 -8.53 dB -21.31 dB 3:47 13-Let Me Love You Baby (Live)
DR11 -9.06 dB -21.68 dB 7:28 14-Texas Flood (Live)
DR13 -8.54 dB -24.20 dB 13:21 15-Life Without You (Live)
––––––––––––––––––––––––––––––––––––––––

Number of tracks: 15
Official DR value: DR13

Samplerate: 2822400 Hz / PCM Samplerate: 88200 Hz
Channels: 2
Bits per sample: 24
Bitrate: 5645 kbps
Codec: DSD64


Uncompressed SACD ISO size > 2,81 GB


Stevie Ray Vaughan And Double Trouble - Texas Hurricane (2014) [APO SACD Boxset] PS3 ISO + Hi-Res FLAC / RE-UP

The Vaughan Brothers - Family Style (1990) [APO Remaster 2014]
PS3 Rip | SACD ISO | DSD64 2.0 > 1-bit/2.8224 MHz | 40:47 minutes | Scans included | 1,2 GB
or FLAC(converted with foobar2000 to tracks) 24bit/88,2 kHz | Full Scans included | 866 MB

With slick production from Nile Rodgers and employing neither guitarist's band (Double Trouble nor the Fabulous Thunderbirds), this is bluesy, but far from purist. Jimmie makes his vocal debut on "White Boots" and "Good Texan," and the brothers blur the lines between their expected guitar styles – Stevie sometimes going for a less sustainy twang, Jimmie moving into Albert King territory. When standard blues is the order of the day (the slow instro "Brothers"), the key word is "standard" – bordering on run-of-the-mill. Instrumentals "D/FW" and "Hillbillies from Outer Space" fare better – offering ZZ Top crunch and Santo & Johnny steel, respectively.

Tracklist:

01. Hard To Be
02. White Boots
03. D/FW
04. Good Texan
05. Hillbillies From Outerspace
06. Long Way From Home
07. Tick Tock
08. Telephone Song
09. Baboom/ Mama Said
10. Brothers

foobar2000 1.3.11 / Dynamic Range Meter 1.1.1

––––––––––––––––––––––––––––––––––––––––
Analyzed: Stevie Ray Vaughan / Family Style
––––––––––––––––––––––––––––––––––––––––

DR Peak RMS Duration Track
––––––––––––––––––––––––––––––––––––––––
DR14 -7.75 dB -23.11 dB 4:43 01-Hard To Be
DR15 -7.51 dB -23.80 dB 3:50 02-White Boots
DR13 -8.63 dB -23.18 dB 2:52 03-D/FW
DR15 -6.87 dB -23.15 dB 4:22 04-Good Texan
DR15 -6.60 dB -22.85 dB 3:45 05-Hillbillies From Outerspace
DR13 -7.83 dB -21.85 dB 3:15 06-Long Way From Home
DR14 -8.49 dB -24.77 dB 4:57 07-Tick Tock
DR14 -6.42 dB -22.68 dB 3:28 08-Telephone Song
DR16 -7.08 dB -25.69 dB 4:30 09-Baboom/ Mama Said
DR13 -7.94 dB -22.82 dB 5:05 10-Brothers
––––––––––––––––––––––––––––––––––––––––

Number of tracks: 10
Official DR value: DR14

Samplerate: 2822400 Hz / PCM Samplerate: 88200 Hz
Channels: 2
Bits per sample: 24
Bitrate: 5645 kbps
Codec: DSD64


Uncompressed SACD ISO size > 1,63 GB


Stevie Ray Vaughan And Double Trouble - Texas Hurricane (2014) [APO SACD Boxset] PS3 ISO + Hi-Res FLAC / RE-UP

The Vaughan Brothers - The Sky Is Crying (1991) [APO Remaster 2014]
PS3 Rip | SACD ISO | DSD64 2.0 > 1-bit/2.8224 MHz | 38:43 minutes | Scans included | 1,13 GB
or FLAC(converted with foobar2000 to tracks) 24bit/88,2 kHz | Full Scans included | 816 MB

The posthumously assembled ten-track outtakes collection The Sky Is Crying actually proves to be one of Stevie Ray Vaughan's most consistent albums, rivaling In Step as the best outside of the Greatest Hits collection. These songs were recorded in sessions spanning from 1984's Couldn't Stand the Weather to 1989's In Step and were left off of the LPs for whatever reason (or, in the case of Soul to Soul's "Empty Arms," a different version was used). What makes the record work is its eclectic diversity – Vaughan plays slide guitar on "Boot Hill" and acoustic on "Life by the Drop"; he smokes on the slow blues of "May I Have a Talk With You" and the title track just as much as on the up-tempo Lonnie Mack cover, "Wham"; and he shows the jazzy side of his playing on Hendrix's "Little Wing" and Kenny Burrell's "Chitlins Con Carne." But it's not just musical diversity that makes the record work, it's also Vaughan's emotional range. From the morbidly dark "Boot Hill" to the lilting "Little Wing" to the exuberant tributes to his influences – Lonnie Mack on "Wham" and Albert King on "The Sky Is Crying" – Vaughan makes the material resonate, and in light of his death, "The Sky Is Crying" and the touching survivor-story ballad "Life by the Drop" are two of the most moving moments in Vaughan's oeuvre.

Tracklist:

01. Boot Hill
02. The Sky Is Crying
03. Empty Arms
04. Little Wing
05. Wham!
06. May I Have A Talk With You?
07. Close To You
08. Chitlins Con Carne
09. So Excited
10. Life By The Drop

foobar2000 1.3.11 / Dynamic Range Meter 1.1.1

––––––––––––––––––––––––––––––––––––––––
Analyzed: Stevie Ray Vaughan / The Sky Is Crying
––––––––––––––––––––––––––––––––––––––––

DR Peak RMS Duration Track
––––––––––––––––––––––––––––––––––––––––
DR12 -7.52 dB -21.29 dB 2:16 01-Boot Hill
DR15 -7.03 dB -23.74 dB 4:38 02-The Sky Is Crying
DR14 -7.06 dB -21.45 dB 3:31 03-Empty Arms
DR13 -7.76 dB -24.50 dB 6:50 04-Little Wing
DR13 -7.88 dB -22.00 dB 2:27 05-Wham
DR16 -7.21 dB -24.48 dB 5:50 06-May I Have A Talk With You
DR13 -6.53 dB -21.21 dB 3:14 07-Close To You
DR16 -7.42 dB -26.34 dB 3:59 08-Chitlins Con Carne
DR14 -6.35 dB -22.39 dB 3:32 09-So Excited
DR11 -10.43 dB -24.71 dB 2:25 10-Life By The Drop
––––––––––––––––––––––––––––––––––––––––

Number of tracks: 10
Official DR value: DR14

Samplerate: 2822400 Hz / PCM Samplerate: 88200 Hz
Channels: 2
Bits per sample: 24
Bitrate: 5645 kbps
Codec: DSD64


Uncompressed SACD ISO size > 1,55 GB
*
MASTERED FROM THE ORIGINAL ANALOG TAPES BY STERLING SOUND.
Many thanks to PSĀ³SACD!
>