Tags
Language
Tags

Sylvia Vrethammar - The Girl From Uddevalla (2017) [Official Digital Download]

Posted By: HDV
Sylvia Vrethammar - The Girl From Uddevalla (2017) [Official Digital Download]

Sylvia Vrethammar - The Girl From Uddevalla (2017)
FLAC (tracks) 24-bit/44,1 kHz | Time - 45:44 minutes | 554 MB
Studio Master, Official Digital Download | Artwork: Front cover

Since more than 40 years, Sylvia Vrethammar sings all around the world. She lives in Europe but in her heart is in Brazil. With this album, the Sweden star presents an own personal homage to this land and its music.

Tracklist:

01 - Só Danço Samba
02 - That's the Way of the World
03 - Moonlight
04 - The World Is Calling
05 - Samba for Vinicius
06 - The Copaflat
07 - My Açucena
08 - The Samba in Me
09 - Outra Vez
10 - Time to Say Hello
11 - Eu Sei Que Vou Te Amar
12 - The Girl from Ipanema

Musicians:
Sylvia Vrethammar - vocals
Magnus Lindgren - woodwinds, back-up vocals
Rüdiger Baldauf - trumpet, flugelhorn
Frank Chastenier - keyboards
Bruno Müller - guitars
Christian von Kaphengst - bass
Alfonso Garrido - percussion
Thomas Heinz - drums

Note: Track "4" presented in 24/48

Analyzed: Sylvia Vrethammar / The Girl from Uddevalla
––––––––––––––––––––––––––––––––––––––––

DR Peak RMS Duration Track
––––––––––––––––––––––––––––––––––––––––
DR8 -0.61 dB -10.58 dB 3:34 01-Só Danço Samba
DR7 -0.68 dB -9.94 dB 4:30 02-That's the Way of the World
DR9 -0.83 dB -12.55 dB 3:18 03-Moonlight
DR8 -0.72 dB -10.84 dB 2:52 05-Samba for Vinicius
DR9 -0.72 dB -10.77 dB 3:38 06-The Copaflat
DR7 -0.72 dB -10.27 dB 4:01 07-My Açucena
DR7 -0.68 dB -9.44 dB 4:05 08-The Samba in Me
DR9 -0.82 dB -10.98 dB 3:37 09-Outra Vez
DR9 -0.79 dB -12.32 dB 4:15 10-Time to Say Hello
DR8 -0.74 dB -11.29 dB 3:27 11-Eu Sei Que Vou Te Amar
DR8 -0.70 dB -11.71 dB 4:19 12-The Girl from Ipanema
––––––––––––––––––––––––––––––––––––––––

Number of tracks: 11
Official DR value: DR8

Samplerate: 44100 Hz
Channels: 2
Bits per sample: 24
Bitrate: 1510 kbps
Codec: FLAC
================================================================================

––––––––––––––––––––––––––––––––––––––––
Statistics for: 04-The World Is Calling
Number of samples: 11891131
Duration: 4:08
––––––––––––––––––––––––––––––––––––––––

Left Right

Peak Value: -0.23 dB –- -0.51 dB
Avg RMS: -9.29 dB –- -9.94 dB
DR channel: 7.32 dB –- 7.90 dB
––––––––––––––––––––––––––––––––––––––––

Official DR Value: DR8

Samplerate: 48000 Hz
Channels: 2
Bits per sample: 24
Bitrate: 1815 kbps
Codec: FLAC
================================================================================


Thanks to the Original customer!