The Doors - Infinite (2013) [6x SACD LE Box Set - Analogue Productions' Remasters 2013] PS3 ISO + Hi-Res FLAC / RE-UP

Posted By: HDAtall
The Doors - Infinite (2013) [6x SACD LE Box Set - Analogue Productions' Remasters 2013] PS3 ISO + Hi-Res FLAC / RE-UP

The Doors - Infinite (2013) [6x SACD LE Box Set / 1967-1971]
PS3 Rip | SACD ISO | DST or DSD64 2.0 & DST64 5.1 > 1-bit/2.8224 MHz | 236:39 mins | Full Scans incl. | 14 GB
or FLAC 2.0 (converted with foobar2000 to tracks) 24bit/88,2 kHz | 235:49 minutes | Full Scans | 4,73 GB
Includes Six Studio albums | Analogue Productions' Remasters 2013

Infinite, a deluxe, limited-edition, audiophile boxed set from Analogue Productions, contains all six legendary albums by The Doors - the self-titled 1967 debut (one of rock's most important), Strange Days, Waiting For The Sun, The Soft Parade, Morrison Hotel and the visceral L.A. Woman. Each album has been remastered in multichannel for hybrid SACD by Doug Sax and The Doors' original engineer Bruce Botnick.


The Doors - Infinite (2013) [6x SACD LE Box Set - Analogue Productions' Remasters 2013] PS3 ISO + Hi-Res FLAC / RE-UP

The Doors - The Doors (1967) [APO SACD 2013]
PS3 Rip | SACD ISO | DST64 5.1 & 2.0 > 1-bit/2.8224 MHz | 44:12 mins | Full Scans included | 2,9 GB (2,75 GB)
or FLAC 2.0 Stereo (converted with foobar2000 to tracks) 24bit/88,2 kHz | 44:38 min | Scans included | 912 MB
Elektra / Analogue Productions # CAPP 74007 SA

Tracklist:

01. Break On Through (To The Other Side)
02. Soul Kitchen
03. The Crystal Ship
04. Twentieth Century Fox
05. Alabama Song (Whisky Bar)
06. Light My Fire
07. Back Door Man
08. I Looked At You
09. End Of The Night
10. Take It As It Comes
11. The End

foobar2000 1.2.8 / Dynamic Range Meter 1.1.1

––––––––––––––––––––––––––––––––––––––––
Analyzed: The Doors / The Doors
––––––––––––––––––––––––––––––––––––––––

DR Peak RMS Duration Track
––––––––––––––––––––––––––––––––––––––––
DR11 -8.29 dB -23.84 dB 2:28 01-Break On Through (To The Other Side)
DR10 -6.86 dB -23.47 dB 3:33 02-Soul Kitchen
DR12 -8.00 dB -27.03 dB 2:33 03-The Crystal Ship
DR10 -8.36 dB -24.39 dB 2:34 04-Twentieth Century Fox
DR12 -8.05 dB -25.35 dB 3:18 05-Alabama Song (Whisky Bar)
DR10 -7.24 dB -22.97 dB 6:59 06-Light My Fire
DR13 -6.75 dB -27.34 dB 3:34 07-Back Door Man
DR11 -7.74 dB -24.32 dB 2:23 08-I Looked At You
DR11 -8.37 dB -25.16 dB 2:51 09-End Of The Night
DR10 -7.83 dB -21.70 dB 2:19 10-Take It As It Comes
DR12 -6.47 dB -26.48 dB 11:42 11-The End
––––––––––––––––––––––––––––––––––––––––

Number of tracks: 11
Official DR value: DR11

Samplerate: 2822400 Hz / PCM Samplerate: 88200 Hz
Channels: 6
Bits per sample: 24
Bitrate: 16934 kbps
Codec: DST64
================================================================================

––––––––––––––––––––––––––––––––––––––––
Analyzed: The Doors / The Doors
––––––––––––––––––––––––––––––––––––––––

DR Peak RMS Duration Track
––––––––––––––––––––––––––––––––––––––––
DR10 -13.83 dB -26.13 dB 2:29 01-Break On Through (To The Other Side)
DR11 -12.93 dB -27.63 dB 3:35 02-Soul Kitchen
DR11 -13.33 dB -27.62 dB 2:35 03-The Crystal Ship
DR11 -12.65 dB -25.94 dB 2:34 04-Twentieth Century Fox
DR11 -14.47 dB -28.07 dB 3:20 05-Alabama Song (Whisky Bar)
DR9 -14.43 dB -26.00 dB 7:10 06-Light My Fire
DR11 -12.54 dB -25.95 dB 3:34 07-Back Door Man
DR10 -13.63 dB -26.88 dB 2:22 08-I Looked At You
DR11 -15.40 dB -30.77 dB 2:53 09-End Of The Night
DR10 -13.37 dB -26.09 dB 2:17 10-Take It As It Comes
DR11 -14.06 dB -29.64 dB 11:48 11-The End
––––––––––––––––––––––––––––––––––––––––

Number of tracks: 11
Official DR value: DR10

Samplerate: 2822400 Hz / PCM Samplerate: 88200 Hz
Channels: 2
Bits per sample: 24
Bitrate: 5645 kbps
Codec: DST64



The Doors - Infinite (2013) [6x SACD LE Box Set - Analogue Productions' Remasters 2013] PS3 ISO + Hi-Res FLAC / RE-UP

The Doors - Strange Days (1967) [APO SACD 2013]
PS3 Rip | SACD ISO | DST64 5.1/DSD64 2.0 > 1-bit/2.8224 MHz | 35:22 mins | Full Scans included | 2,68 GB (3,01 GB)
or FLAC 2.0 Stereo (converted with foobar2000 to tracks) 24bit/88,2 kHz | 35:19 minutes | Scans included | 753 MB
Elektra / Analogue Productions # CAPP 74014 SA

Tracklist:

01. Strange Days
02. You're Lost Little Girl
03. Love Me Two Times
04. Unhappy Girl
05. Horse Latitudes
06. Moonlight Drive
07. People Are Strange
08. My Eyes Have Seen You
09. I Can't See Your Face in My Mind
10. When the Music's Over

foobar2000 1.2.8 / Dynamic Range Meter 1.1.1

––––––––––––––––––––––––––––––––––––––––
Analyzed: The Doors / Strange Days
––––––––––––––––––––––––––––––––––––––––

DR Peak RMS Duration Track
––––––––––––––––––––––––––––––––––––––––
DR11 -9.56 dB -26.36 dB 3:09 01-Strange Days
DR10 -9.03 dB -26.44 dB 3:05 02-You're Lost Little Girl
DR13 -9.03 dB -27.11 dB 3:16 03-Love Me Two Times
DR13 -8.54 dB -27.58 dB 1:57 04-Unhappy Girl
DR11 -10.85 dB -28.73 dB 1:35 05-Horse Latitudes
DR13 -7.86 dB -26.43 dB 3:05 06-Moonlight Drive
DR12 -8.90 dB -27.93 dB 2:12 07-People Are Strange
DR11 -9.03 dB -27.04 dB 2:32 08-My Eyes Have Seen You
DR11 -9.03 dB -30.48 dB 3:25 09-I Can't See Your Face in My Mind
DR12 -7.03 dB -27.89 dB 11:06 10-When the Music's Over
––––––––––––––––––––––––––––––––––––––––

Number of tracks: 10
Official DR value: DR12

Samplerate: 2822400 Hz / PCM Samplerate: 88200 Hz
Channels: 6
Bits per sample: 24
Bitrate: 16934 kbps
Codec: DST64
================================================================================

––––––––––––––––––––––––––––––––––––––––
Analyzed: The Doors / Strange Days
––––––––––––––––––––––––––––––––––––––––

DR Peak RMS Duration Track
––––––––––––––––––––––––––––––––––––––––
DR10 -13.07 dB -25.14 dB 3:09 01-Strange Days
DR10 -12.91 dB -27.11 dB 3:05 02-You're Lost Little Girl
DR10 -13.47 dB -26.69 dB 3:16 03-Love Me Two Times
DR10 -14.02 dB -27.17 dB 1:59 04-Unhappy Girl
DR9 -14.73 dB -29.29 dB 1:36 05-Horse Latitudes
DR10 -13.53 dB -26.62 dB 3:05 06-Moonlight Drive
DR10 -13.33 dB -28.07 dB 2:13 07-People Are Strange
DR10 -13.63 dB -26.15 dB 2:29 08-My Eyes Have Seen You
DR11 -14.28 dB -28.97 dB 3:26 09-I Can't See Your Face in My Mind
DR12 -10.59 dB -26.74 dB 11:02 10-When the Music's Over
––––––––––––––––––––––––––––––––––––––––

Number of tracks: 10
Official DR value: DR10

Samplerate: 2822400 Hz / PCM Samplerate: 88200 Hz
Channels: 2
Bits per sample: 24
Bitrate: 5645 kbps
Codec: DSD64



The Doors - Infinite (2013) [6x SACD LE Box Set - Analogue Productions' Remasters 2013] PS3 ISO + Hi-Res FLAC / RE-UP

The Doors - Waiting For The Sun (1968) [APO SACD 2013]
PS3 Rip | SACD ISO | DST64 5.1/DSD64 2.0 > 1-bit/2.8224 MHz | 34:08 mins | Full Scans included | 2,57 GB (2,89 GB)
or FLAC 2.0 Stereo (converted with foobar2000 to tracks) 24bit/88,2 kHz | 33:01 minutes | Scans included | 661 MB
Elektra / Analogue Productions # CAPP 74024 SA

Tracklist:

01. Hello, I Love You
02. Love Street
03. Not To Touch The Earth
04. Summer's Almost Gone
05. Wintertime Love
06. The Unknown Soldier
07. Spanish Caravan
08. My Wild Love
09. We Could Be So Good Together
10. Yes, The River Knows
11. Five To One

foobar2000 1.2.8 / Dynamic Range Meter 1.1.1

––––––––––––––––––––––––––––––––––––––––
Analyzed: The Doors / Waiting For The Sun
––––––––––––––––––––––––––––––––––––––––

DR Peak RMS Duration Track
––––––––––––––––––––––––––––––––––––––––
DR12 -6.54 dB -22.85 dB 2:40 01-Hello, I Love You
DR11 -6.93 dB -24.08 dB 2:57 02-Love Street
DR11 -6.35 dB -22.96 dB 4:01 03-Not To Touch The Earth
DR12 -6.66 dB -24.26 dB 3:23 04-Summer's Almost Gone
DR11 -6.60 dB -22.43 dB 1:56 05-Wintertime Love
DR12 -6.52 dB -23.87 dB 3:27 06-The Unknown Soldier
DR12 -6.58 dB -25.78 dB 3:03 07-Spanish Caravan
DR15 -7.96 dB -31.03 dB 3:01 08-My Wild Love
DR13 -6.52 dB -25.90 dB 2:24 09-We Could Be So Good Together
DR11 -6.54 dB -25.74 dB 2:42 10-Yes, The River Knows
DR12 -6.53 dB -24.78 dB 4:34 11-Five To One
––––––––––––––––––––––––––––––––––––––––

Number of tracks: 11
Official DR value: DR12

Samplerate: 2822400 Hz / PCM Samplerate: 88200 Hz
Channels: 6
Bits per sample: 24
Bitrate: 16934 kbps
Codec: DST64
================================================================================

––––––––––––––––––––––––––––––––––––––––
Analyzed: The Doors / Waiting For The Sun
––––––––––––––––––––––––––––––––––––––––

DR Peak RMS Duration Track
––––––––––––––––––––––––––––––––––––––––
DR11 -13.80 dB -27.70 dB 2:16 01-Hello, I Love You
DR11 -14.44 dB -28.56 dB 2:52 02-Love Street
DR11 -13.38 dB -28.50 dB 3:55 03-Not To Touch The Earth
DR12 -11.24 dB -26.99 dB 3:22 04-Summer's Almost Gone
DR11 -14.14 dB -27.51 dB 1:53 05-Wintertime Love
DR9 -12.83 dB -26.69 dB 3:22 06-The Unknown Soldier
DR11 -13.46 dB -28.72 dB 2:59 07-Spanish Caravan
DR15 -12.95 dB -31.39 dB 2:52 08-My Wild Love
DR12 -10.37 dB -25.44 dB 2:23 09-We Could Be So Good Together
DR11 -13.11 dB -28.44 dB 2:38 10-Yes, The River Knows
DR11 -14.06 dB -28.66 dB 4:29 11-Five To One
––––––––––––––––––––––––––––––––––––––––

Number of tracks: 11
Official DR value: DR11

Samplerate: 2822400 Hz / PCM Samplerate: 88200 Hz
Channels: 2
Bits per sample: 24
Bitrate: 5645 kbps
Codec: DSD64



The Doors - Infinite (2013) [6x SACD LE Box Set - Analogue Productions' Remasters 2013] PS3 ISO + Hi-Res FLAC / RE-UP

The Doors - The Soft Parade (1969) [APO SACD 2013]
PS3 Rip | SACD ISO | DST64 5.1/DSD64 2.0 > 1-bit/2.8224 MHz | 35:04 mins | Full Scans included | 2,72 GB (3 GB)
or FLAC 2.0 Stereo (converted with foobar2000 to tracks) 24bit/88,2 kHz | 33:55 minutes | Scans included | 713 MB
Elektra / Analogue Productions # CAPP 75005 SA

Tracklist:

01. Tell All The People
02. Touch Me
03. Shaman's Blues
04. Do It
05. Easy Ride
06. Wild Child
07. Runnin' Blue
08. Wishful Sinful
09. The Soft Parade

foobar2000 1.2.8 / Dynamic Range Meter 1.1.1

––––––––––––––––––––––––––––––––––––––––
Analyzed: The Doors / The Soft Parade
––––––––––––––––––––––––––––––––––––––––

DR Peak RMS Duration Track
––––––––––––––––––––––––––––––––––––––––
DR12 -6.98 dB -22.77 dB 3:22 01-Tell All The People
DR11 -7.05 dB -22.71 dB 3:13 02-Touch Me
DR12 -6.96 dB -22.34 dB 4:50 03-Shaman's Blues
DR11 -6.97 dB -22.31 dB 3:10 04-Do It
DR11 -7.00 dB -21.65 dB 2:41 05-Easy Ride
DR13 -6.84 dB -22.74 dB 2:38 06-Wild Child
DR12 -7.04 dB -24.75 dB 2:30 07-Runnin' Blue
DR11 -7.02 dB -21.79 dB 3:00 08-Wishful Sinful
DR15 -7.10 dB -27.24 dB 9:40 09-The Soft Parade
––––––––––––––––––––––––––––––––––––––––

Number of tracks: 9
Official DR value: DR12

Samplerate: 2822400 Hz / PCM Samplerate: 88200 Hz
Channels: 6
Bits per sample: 24
Bitrate: 16934 kbps
Codec: DST64
================================================================================

––––––––––––––––––––––––––––––––––––––––
Analyzed: The Doors / The Soft Parade
––––––––––––––––––––––––––––––––––––––––

DR Peak RMS Duration Track
––––––––––––––––––––––––––––––––––––––––
DR11 -11.25 dB -26.10 dB 3:21 01-Tell All The People
DR12 -10.31 dB -24.99 dB 3:12 02-Touch Me
DR14 -8.72 dB -24.79 dB 4:48 03-Shaman's Blues
DR12 -9.23 dB -24.18 dB 3:09 04-Do It
DR11 -10.27 dB -24.44 dB 2:42 05-Easy Ride
DR15 -8.16 dB -25.65 dB 2:36 06-Wild Child
DR15 -8.07 dB -25.48 dB 2:28 07-Runnin' Blue
DR12 -10.55 dB -25.34 dB 2:58 08-Wishful Sinful
DR13 -9.10 dB -25.17 dB 8:41 09-The Soft Parade
––––––––––––––––––––––––––––––––––––––––

Number of tracks: 9
Official DR value: DR13

Samplerate: 2822400 Hz / PCM Samplerate: 88200 Hz
Channels: 2
Bits per sample: 24
Bitrate: 5645 kbps
Codec: DSD64



The Doors - Infinite (2013) [6x SACD LE Box Set - Analogue Productions' Remasters 2013] PS3 ISO + Hi-Res FLAC / RE-UP

The Doors - Morrison Hotel (1970) [APO SACD 2013]
PS3 Rip | SACD ISO | DST64 5.1/DSD64 2.0 > 1-bit/2.8224 MHz | 37:51 mins | Full Scans included | 2,92 GB (3,25 GB)
or FLAC 2.0 Stereo (converted with foobar2000 to tracks) 24bit/88,2 kHz | 37:28 minutes | Scans included | 790 MB
Elektra / Analogue Productions # CAPP 75007 SA

Tracklist:

01. Roadhouse Blues
02. Waiting for the Sun
03. You Make Me Real
04. Peace Frog
05. Blue Sunday
06. Ship of Fools
07. Land Ho!
08. The Spy
09. Queen of the Highway
10. Indian Summer
11. Maggie M'Gill

foobar2000 1.2.8 / Dynamic Range Meter 1.1.1

––––––––––––––––––––––––––––––––––––––––
Analyzed: The Doors / Morrison Hotel
––––––––––––––––––––––––––––––––––––––––

DR Peak RMS Duration Track
––––––––––––––––––––––––––––––––––––––––
DR12 -6.99 dB -22.58 dB 4:08 01-Roadhouse Blues
DR13 -6.99 dB -22.81 dB 4:03 02-Waiting for the Sun
DR14 -6.95 dB -23.49 dB 2:54 03-You Make Me Real
DR12 -6.71 dB -25.53 dB 2:52 04-Peace Frog
DR11 -7.05 dB -28.08 dB 2:10 05-Blue Sunday
DR12 -7.00 dB -25.60 dB 3:17 06-Ship of Fools
DR10 -6.96 dB -22.19 dB 4:18 07-Land Ho!
DR12 -6.91 dB -24.38 dB 4:17 08-The Spy
DR12 -6.98 dB -22.98 dB 2:52 09-Queen of the Highway
DR12 -8.57 dB -27.56 dB 2:37 10-Indian Summer
DR13 -7.02 dB -24.96 dB 4:22 11-Maggie M'Gill
––––––––––––––––––––––––––––––––––––––––

Number of tracks: 11
Official DR value: DR12

Samplerate: 2822400 Hz / PCM Samplerate: 88200 Hz
Channels: 6
Bits per sample: 24
Bitrate: 16934 kbps
Codec: DST64
================================================================================

––––––––––––––––––––––––––––––––––––––––
Analyzed: The Doors / Morrison Hotel
––––––––––––––––––––––––––––––––––––––––

DR Peak RMS Duration Track
––––––––––––––––––––––––––––––––––––––––
DR10 -11.72 dB -24.68 dB 4:04 01-Roadhouse Blues
DR11 -10.65 dB -24.78 dB 3:59 02-Waiting for the Sun
DR11 -10.90 dB -25.09 dB 2:53 03-You Make Me Real
DR13 -12.20 dB -27.32 dB 2:50 04-Peace Frog
DR12 -14.45 dB -29.95 dB 2:12 05-Blue Sunday
DR10 -13.03 dB -25.58 dB 3:09 06-Ship of Fools
DR10 -10.83 dB -23.67 dB 4:10 07-Land Ho!
DR13 -9.76 dB -26.61 dB 4:17 08-The Spy
DR11 -9.80 dB -23.57 dB 2:47 09-Queen of the Highway
DR10 -13.12 dB -27.73 dB 2:35 10-Indian Summer
DR14 -9.89 dB -26.67 dB 4:30 11-Maggie M'Gill
––––––––––––––––––––––––––––––––––––––––

Number of tracks: 11
Official DR value: DR11

Samplerate: 2822400 Hz / PCM Samplerate: 88200 Hz
Channels: 2
Bits per sample: 24
Bitrate: 5645 kbps
Codec: DSD64



The Doors - Infinite (2013) [6x SACD LE Box Set - Analogue Productions' Remasters 2013] PS3 ISO + Hi-Res FLAC / RE-UP

The Doors - L.A. Woman (1971) [APO SACD 2013]
PS3 Rip | SACD ISO | DST64 5.1 & 2.0 > 1-bit/2.8224 MHz | 50:02 mins | Full Scans included | 3,15 GB (2,99 GB)
or FLAC 2.0 Stereo (converted with foobar2000 to tracks) 24bit/88,2 kHz | 48:50 minutes | Scans incl. | 1017 MB
Elektra / Analogue Productions # CAPP 75011 SA

Tracklist:

01. The Changeling
02. Love Her Madly
03. Been Down So Long
04. Cars Hiss by My Window
05. L. A. Woman
06. L'America
07. Hyacinth House
08. Crawling King Snake
09. The WASP (Texas Radio and the Big Beat)
10. Riders On The Storm

foobar2000 1.2.8 / Dynamic Range Meter 1.1.1

––––––––––––––––––––––––––––––––––––––––
Analyzed: The Doors / L.A. Woman
––––––––––––––––––––––––––––––––––––––––

DR Peak RMS Duration Track
––––––––––––––––––––––––––––––––––––––––
DR13 -6.50 dB -28.21 dB 4:25 01-The Changeling
DR16 -6.52 dB -28.25 dB 3:40 02-Love Her Madly
DR13 -6.48 dB -26.98 dB 4:44 03-Been Down So Long
DR15 -9.05 dB -30.23 dB 4:59 04-Cars Hiss by My Window
DR14 -6.54 dB -28.38 dB 7:59 05-L. A. Woman
DR14 -6.97 dB -30.15 dB 4:34 06-L'America
DR13 -6.49 dB -26.81 dB 3:13 07-Hyacinth House
DR15 -6.45 dB -27.64 dB 5:01 08-Crawling King Snake
DR15 -6.48 dB -26.52 dB 4:17 09-The WASP (Texas Radio and the Big Beat)
DR15 -8.45 dB -31.25 dB 7:10 10-Riders On The Storm
––––––––––––––––––––––––––––––––––––––––

Number of tracks: 10
Official DR value: DR14

Samplerate: 2822400 Hz / PCM Samplerate: 88200 Hz
Channels: 6
Bits per sample: 24
Bitrate: 16934 kbps
Codec: DST64
================================================================================

––––––––––––––––––––––––––––––––––––––––
Analyzed: The Doors / L.A. Woman
––––––––––––––––––––––––––––––––––––––––

DR Peak RMS Duration Track
––––––––––––––––––––––––––––––––––––––––
DR12 -12.14 dB -26.71 dB 4:21 01-The Changeling
DR13 -10.20 dB -26.50 dB 3:21 02-Love Her Madly
DR12 -11.35 dB -26.45 dB 4:41 03-Been Down So Long
DR14 -12.26 dB -30.07 dB 4:11 04-Cars Hiss by My Window
DR13 -11.53 dB -27.22 dB 7:51 05-L. A. Woman
DR13 -11.87 dB -27.83 dB 4:37 06-L'America
DR12 -11.69 dB -26.56 dB 3:12 07-Hyacinth House
DR14 -12.35 dB -30.04 dB 5:00 08-Crawling King Snake
DR14 -9.39 dB -25.45 dB 4:14 09-The WASP (Texas Radio and the Big Beat)
DR16 -10.06 dB -30.39 dB 7:22 10-Riders On The Storm
––––––––––––––––––––––––––––––––––––––––

Number of tracks: 10
Official DR value: DR13

Samplerate: 2822400 Hz / PCM Samplerate: 88200 Hz
Channels: 2
Bits per sample: 24
Bitrate: 5645 kbps
Codec: DST64


The surround sound originates from 96K, 24-bit files that were mixed and mastered from the original one-inch, eight track, 15-ips analog master tapes by Bruce Botnick for Elektra's 2006 DVD Audio release entitled Perception. For the SACDs, those files were then up-sampled without filters to DSD using the Weiss Saracon format converter and authored by Gus Skinas at the Super Audio Center. Infinite is packaged in a unique, high-quality fold-over box that contains extensive notes on each album, nineteen photographs and a 2,700-word essay by The Doors biographer Ben Fong-Torres, esteemed rock journalist and former Rolling Stone editor.
Thanks to PS³SACD!