Tags
Language
Tags
June 2024
Su Mo Tu We Th Fr Sa
26 27 28 29 30 31 1
2 3 4 5 6 7 8
9 10 11 12 13 14 15
16 17 18 19 20 21 22
23 24 25 26 27 28 29
30 1 2 3 4 5 6

The Gipsy Jazz Violin Summit - The Gipsy Jazz Violin Summit (1979/2015) [Official Digital Download 24/88]

Posted By: HDV
The Gipsy Jazz Violin Summit - The Gipsy Jazz Violin Summit (1979/2015) [Official Digital Download 24/88]

The Gipsy Jazz Violin Summit - The Gipsy Jazz Violin Summit (1979/2015)
FLAC (tracks) 24-bit/88,2 kHz | Time - 36:57 minutes | 708 MB
Studio Master, Official Digital Download | Artwork: Front cover

Accompanied by a top-flight rhythm section, four exceptional German gypsy violinists trade solos on five standards and three originals. The album swings infectiously as the violinists present lively renditions of Satin Doll and Autumn Leaves, as well as a surprisingly up-tempo Bye Bye Blackbird. The four are following in the tradition of legendary gypsy guitarist Django Rheinhardt and his musical soulmate French violinist Stephane Grappelli, but there is a taste of something more modern. Leader of the pack Zipflo Rheinhardt is descended from Django, but admits to being influenced by Jean-Luc Ponty.

Here’s something special for jazz violin fans: accompanied by a top-flight rhythm section, four exceptional German gypsy violinists trade scintillating solos on five standards and three originals. The four follow in the tradition of the legendary gypsy guitarist Django Rheinhardt and his musical soulmate French violinist Stephane Grappelli, but here there is a taste of something more modern. Leader of the pack Zipflo Rheinhardt is descended from Django, but admits to being influenced by Jean-Luc Ponty. The album swings infectiously, with the violinists trading phrases on lively renditions of Satin Doll and Autumn Leaves, as well as a surprisingly up-tempo Bye Bye Blackbird. Gipso Nipso has a Latin feel to the theme before the band gets down to a swinging blues and some background vocalese. Zipflo’s Orpheus has an intro sounding of ancient Greece, then transforms into a minor blues with some hip rhythmic acrobatics for the solos. A treat times four for those who love jazz violin and swing.

Tracklist:

01 - Nothing Else
02 - Satin Doll
03 - Autumn Leaves
04 - Gipso Nipso
05 - Bye Bye Blackbird
06 - Orpheus
07 - What a Difference a Day Made
08 - Flamingo

Produced by Willi Fruth.
Recorded on May 1-3, 1979 at MPS Studio Villingen, Germany.
Digitally Remastered.

Musicians:
Zipflo Reinhardt - violin
Schmitto Kling - violin
Nipso Brantner - violin
Hannes Beckmann - violin
Otto Weiss - piano
Gary Todd - bass
Charly Antolini - drums

Analyzed: Zipflo Reinhardt with Schmitto Kling, Nipso Brantner & Hannes Beckmann / The Gipsy Jazz Violin Summit
––––––––––––––––––––––––––––––––––––––––

DR Peak RMS Duration Track
––––––––––––––––––––––––––––––––––––––––
DR13 -2.49 dB -17.85 dB 4:43 01-Nothing Else
DR10 -3.42 dB -17.15 dB 5:16 02-Satin Doll
DR13 -0.72 dB -16.54 dB 3:41 03-Autumn Leaves
DR12 -1.16 dB -16.59 dB 4:12 04-Gipso Nipso
DR12 -0.78 dB -16.03 dB 4:08 05-Bye Bye Blackbird
DR12 -1.69 dB -15.76 dB 4:58 06-Orpheus
DR14 -1.75 dB -17.88 dB 3:35 07-What a Difference a Day Made
DR14 -1.66 dB -18.59 dB 6:24 08-Flamingo
––––––––––––––––––––––––––––––––––––––––

Number of tracks: 8
Official DR value: DR13

Samplerate: 88200 Hz
Channels: 2
Bits per sample: 24
Bitrate: 2608 kbps
Codec: FLAC
================================================================================


Thanks to the Original customer!