Tags
Language
Tags
November 2022
Su Mo Tu We Th Fr Sa
30 31 1 2 3 4 5
6 7 8 9 10 11 12
13 14 15 16 17 18 19
20 21 22 23 24 25 26
27 28 29 30 1 2 3

The Orchestra of the Americas - De Falla: The Three-Cornered Hat & Nights in the Gardens of Spain (2020) [Of Download 24/192]

Posted By: delpotro
The Orchestra of the Americas - De Falla: The Three-Cornered Hat & Nights in the Gardens of Spain (2020) [Of Download 24/192]

The Orchestra of the Americas, Carlos Miguel Prieto, Jorge Federico Osorio & Alejandra Gómez Ordaz - De Falla: The Three-Cornered Hat & Nights in the Gardens of Spain (2020)
FLAC (tracks) 24-bit/192 kHz | Front Cover & Digital Booklet | Time - 74:58 minutes | 2,76 GB
Classical | Label: Linn Records, Official Digital Download

Following its acclaimed Linn debut recording, Copland & Chávez: Pan-American Reflections, The Orchestra of the Americas releases its sophomore album with its Music Director, Carlos Miguel Prieto. Prieto is joined by fellow Mexican and celebrated pianist Jorge Federico Osorio, who brings his superb musicianship, powerful technique, vibrant imagination and deep passion to this all-Spanish programme. Osorio is the soloist in Falla’s highly atmospheric piano concerto, Nights in the Gardens of Spain, a set of symphonic impressions which conjures up the enticing sounds and scents of a summer’s evening. Conductor and pianist received critical acclaim following their performance of this work in Ireland: ‘Prieto elicited a diaphanous palette of colours [and] as Osorio’s arpeggios shimmered up and down the piano we were magnetically drawn into this highly evocative world full of lush sounds and sensuous possibilities’ (BachTrack). Falla’s masterpiece The Three-Cornered Hat is both vibrant and colourful and showcases the ‘superb precision’ of The Orchestra of the Americas. Falla’s finely crafted and meticulous work ensures that the piece’s folklore-based melodies are consistently accompanied by exquisite background music. The programme is completed by the Interlude & Dance from Falla’s La vida breve and the well-known Intermezzo from Granados’ Goyescas.

Tracklist:
1. Carlos Miguel Prieto, The Orchestra of the Americas & Alejandra Gómez Ordaz – El sombrero de tres picos, Pt. 1: I. Introducción (01:32)
2. Carlos Miguel Prieto & The Orchestra of the Americas – El sombrero de tres picos, Pt. 1: II. La tarde (05:31)
3. Carlos Miguel Prieto & The Orchestra of the Americas – El sombrero de tres picos, Pt. 1: III. Danza de la molinera (03:34)
4. Carlos Miguel Prieto, The Orchestra of the Americas & Alejandra Gómez Ordaz – El sombrero de tres picos, Pt. 1: IV. Las uvas (04:11)
5. Carlos Miguel Prieto & The Orchestra of the Americas – El sombrero de tres picos, Pt. 2: I. Danza de los vecinos (03:22)
6. Carlos Miguel Prieto, The Orchestra of the Americas & Alejandra Gómez Ordaz – El sombrero de tres picos, Pt. 2: II. Danza del molinero (07:48)
7. Carlos Miguel Prieto & The Orchestra of the Americas – El sombrero de tres picos, Pt. 2: III. Danza del corregidor (06:31)
8. Carlos Miguel Prieto & The Orchestra of the Americas – El sombrero de tres picos, Pt. 2: IV. Danza final (06:24)
9. Carlos Miguel Prieto & The Orchestra of the Americas – La vida breve: Interlude and Dance (07:07)
10. Carlos Miguel Prieto & The Orchestra of the Americas – Goyescas: Intermezzo (04:44)
11. Jorge Federico Osorio, Carlos Miguel Prieto & The Orchestra of the Americas – Noches en los jardines de España: I. En el Generalife (10:30)
12. Jorge Federico Osorio, Carlos Miguel Prieto & The Orchestra of the Americas – Noches en los jardines de España: II. Danza lejana (05:03)
13. Jorge Federico Osorio, Carlos Miguel Prieto & The Orchestra of the Americas – Noches en los jardines de España: III. En los jardines de la Sierra de Córdoba (08:34)

foobar2000 1.4.1 / Dynamic Range Meter 1.1.1
log date: 2021-01-28 14:09:59

––––––––––––––––––––––––––––––––––––––––
Analyzed: Carlos Miguel Prieto, The Orchestra of the Americas, Alejandra Gómez Ordaz / De Falla - The Three-Cornered Hat & Nights in the Gardens of Spain (1-3)
Carlos Miguel Prieto, The Orchestra of the Americas / De Falla - The Three-Cornered Hat & Nights in the Gardens of Spain (4-10)
Jorge Federico Osorio, Carlos Miguel Prieto, The Orchestra of the Americas / De Falla - The Three-Cornered Hat & Nights in the Gardens of Spain (11-13)
––––––––––––––––––––––––––––––––––––––––

DR Peak RMS Duration Track
––––––––––––––––––––––––––––––––––––––––
DR15 -0.30 dB -18.83 dB 1:33 01-El sombrero de tres picos, Pt. 1: I. Introducción
DR14 -1.49 dB -22.01 dB 4:12 04-El sombrero de tres picos, Pt. 1: IV. Las uvas
DR17 -0.26 dB -25.04 dB 7:48 06-El sombrero de tres picos, Pt. 2: II. Danza del molinero
DR14 -4.77 dB -26.60 dB 5:31 02-El sombrero de tres picos, Pt. 1: II. La tarde
DR14 -2.73 dB -22.11 dB 3:35 03-El sombrero de tres picos, Pt. 1: III. Danza de la molinera
DR12 -7.79 dB -25.95 dB 3:22 05-El sombrero de tres picos, Pt. 2: I. Danza de los vecinos
DR16 -1.60 dB -24.75 dB 6:31 07-El sombrero de tres picos, Pt. 2: III. Danza del corregidor
DR13 -0.11 dB -16.32 dB 6:25 08-El sombrero de tres picos, Pt. 2: IV. Danza final
DR14 -0.43 dB -20.80 dB 7:08 09-La vida breve: Interlude and Dance
DR15 -5.80 dB -27.29 dB 4:44 10-Goyescas: Intermezzo
DR16 -0.39 dB -23.01 dB 10:31 11-Noches en los jardines de España: I. En el Generalife
DR14 -4.07 dB -23.36 dB 5:03 12-Noches en los jardines de España: II. Danza lejana
DR15 -0.53 dB -21.32 dB 8:35 13-Noches en los jardines de España: III. En los jardines de la Sierra de ordoba
––––––––––––––––––––––––––––––––––––––––

Number of tracks: 13
Official DR value: DR14

Samplerate: 192000 Hz
Channels: 2
Bits per sample: 24
Bitrate: 5233 kbps
Codec: FLAC
================================================================================


Thanks to the Original customer!