Tags
Language
Tags

The Steoples - Wide Through The Eyes Of No One (2021) [Official Digital Download 24/44-48]

Posted By: delpotro
The Steoples - Wide Through The Eyes Of No One (2021) [Official Digital Download 24/44-48]

The Steoples - Wide Through The Eyes Of No One (2021)
FLAC (tracks) 24-bit/44,1-48 kHz | Front Cover | Time - 38:27 minutes | 452 MB
R'n'B, Soul | Label: Stones Throw Records, Official Digital Download

The Steoples are avant-soul duo of GB and Yeofi. Their next album Wide Through the Eyes of No One is coming August 6, 2021.

“The album’s title points to presence in the unconditioned mind,” says Yeofi. “It’s those fleeting moments of transcendence that we’ve all experienced but they rarely register. This raw view gives a brief window into the true nature of oneself, pre-identity unconditioned.”

Friends for over fifteen years, Yeofi and GB combine their varying musical worlds as The Steoples. Originally from rural England, Yeofi was surrounded by his father’s diverse collection of classical to soul music from a young age. With David Bowie as his first “real musical love”, he quickly developed a passion for punk rock and played with several UK-based bands before moving to Los Angeles. As A Race of Angels, Yeofi has collaborated with artists including Theo Parrish and DJ Spinna.

Gifted & Blessed, GB, and Frankie Reyes are just some of the aliases Gabriel has used to release his music. Over the last four years, he has been a Stones Throw regular, releasing two albums as Frankie Reyes on the label: Boleros Valses y Mas in 2016 and Originalitos in 2020. The Steoples’ debut album Six Rocks came out on Stones Throw in 2017 after Peanut Butter Wolf expressed interest in hearing more of Gabriel’s work.

The Steoples’ second album, Wide Through The Eyes Of No One, draws on a range of sounds: Latin rhythms, ‘80s soul, sombre folk, and R&B, with Yeofi’s confessional lyrics contemplating themes of isolation and the “knee jerk resilience of the human spirit.”

While writing Wide Through the Eyes Of No One, The Steoples varied their creative process, incorporating more live instrumentation with a new cast of players. “There are no rules, and that’s what keeps the music interesting and unpredictable for us,” says Yeofi. Though rich and more evolved in its sound, the album stays true to The Steoples’ foundation: “an exploration of music and philosophy by two friends of different backgrounds.”

Tracklist:
1. Everybody's Song (04:50)
2. The Good News (03:00)
3. In the Dance (04:24)
4. Cotton (03:13)
5. Lonely Behavior (03:13)
6. Wide Through the Eyes of No One (03:58)
7. Leaning On Me (03:30)
8. The Real Wealth (04:47)
9. Procession (03:16)
10. Alas Alice (04:12)

foobar2000 1.4.1 / Dynamic Range Meter 1.1.1
log date: 2021-08-05 15:07:43

––––––––––––––––––––––––––––––––––––––––
Statistics for: 02-The Good News (44.1kHz)
Number of samples: 7973690
Duration: 3:01
––––––––––––––––––––––––––––––––––––––––

Left Right

Peak Value: -0.29 dB –- -0.29 dB
Avg RMS: -7.79 dB –- -7.85 dB
DR channel: 6.25 dB –- 6.31 dB
––––––––––––––––––––––––––––––––––––––––

Official DR Value: DR6

Samplerate: 44100 Hz
Channels: 2
Bits per sample: 24
Bitrate: 1630 kbps
Codec: FLAC
================================================================================
foobar2000 1.4.1 / Dynamic Range Meter 1.1.1
log date: 2021-08-05 15:07:58

––––––––––––––––––––––––––––––––––––––––
Analyzed: The Steoples / Wide Through The Eyes Of No One
––––––––––––––––––––––––––––––––––––––––

DR Peak RMS Duration Track
––––––––––––––––––––––––––––––––––––––––
DR8 -0.30 dB -10.05 dB 4:51 01-Everybody's Song
DR9 -0.30 dB -10.61 dB 4:24 03-In The Dance
DR8 -0.30 dB -9.43 dB 3:13 04-Cotton
DR9 -0.30 dB -10.53 dB 3:13 05-Lonely Behavior
DR9 -0.30 dB -9.94 dB 3:58 06-Wide Through The Eyes Of No One
DR9 -0.30 dB -11.00 dB 3:30 07-Leaning On Me
DR8 -0.29 dB -9.48 dB 4:48 08-The Real Wealth
DR9 -0.30 dB -11.66 dB 3:16 09-Procession
DR8 -0.30 dB -9.13 dB 4:13 10-Alas Alice (Bonus Track)
––––––––––––––––––––––––––––––––––––––––

Number of tracks: 9
Official DR value: DR8

Samplerate: 48000 Hz
Channels: 2
Bits per sample: 24
Bitrate: 1624 kbps
Codec: FLAC
================================================================================


Thanks to the Original customer!