Tags
Language
Tags
March 2024
Su Mo Tu We Th Fr Sa
25 26 27 28 29 1 2
3 4 5 6 7 8 9
10 11 12 13 14 15 16
17 18 19 20 21 22 23
24 25 26 27 28 29 30
31 1 2 3 4 5 6

Too Close To Touch - Haven't Been Myself (2016) [Official Digital Download]

Posted By: HDV
Too Close To Touch - Haven't Been Myself (2016) [Official Digital Download]

Too Close To Touch - Haven't Been Myself (2016)
FLAC (tracks) 24-bit/44,1 kHz | Time - 43:22 minutes | 553 MB
Studio Master, Official Digital Download | Artwork: Front cover

"Haven’t Been Myself" is far from the poppier, more upbeat style than what was found in the debut. Instead, it’s almost the exact opposite, with more screams, more emotional and personal lyrical content, and of course that typical “darker sounding” style that more and more bands seem to be falling into lately.


TOO CLOSE TO TOUCH are back with their sophomore album , Haven’t Been Myself, the follow-up to 2015’s Nerve Endings. On Nerve Endings, TOO CLOSE TO TOUCH made their debut with a deeply melodic breed of post-hardcore shot through with soulful vocals. Now with their second full-length the band expands that sound with fiercer energy, harder-hitting arrangements, and even more potently charged material. The Lexington, Kentucky based band , featuring vocalist Keaton Pierce, guitarists Mason Marble and Thomas Kidd, bassist Travis Moore, and drummer Kenneth Downey recorded Haven’t Been Myself with producer Erik Ron (Issues, Set It Off) in his North Hollywood, CA studio. “I was in a really dark place and wanted to make [the album] as cathartic as possible. This album was a pretty tough one to write, but we all gave it everything we have and didn’t hold back. I wouldn’t have it any other way,” says Pierce. TOO CLOSE TO TOUCH are now appearing on the Cyclops Stage at Vans Warped Tour ’16, delivering a powerful live show that heightens their unbridled intensity and centers on close connection with the crowd. And both onstage and on record, the band strives to provide the same catharsis that they’ve found through channeling their pain into song. “When people go through extremely intense experiences they look to music to help them escape, so it’s always been a mission of ours to put out the kind of music that might help in that way.”

Tracklist:

01 - Sympathy
02 - Crooked Smile
03 - What I Wish I Could Forget
04 - Translate
05 - Miss Your Face
06 - The Art of Eye Contact
07 - Modern Love Affair
08 - Inside Voices
09 - What a Shame
10 - For Your Sake
11 - Eiley

Analyzed: Too Close To Touch / Haven't Been Myself
––––––––––––––––––––––––––––––––––––––––

DR Peak RMS Duration Track
––––––––––––––––––––––––––––––––––––––––
DR5 0.00 dB -6.86 dB 3:36 01-Sympathy
DR5 0.00 dB -6.17 dB 3:37 02-Crooked Smile
DR5 0.00 dB -6.35 dB 3:51 03-What I Wish I Could Forget
DR6 0.00 dB -7.08 dB 3:56 04-Translate
DR5 0.00 dB -6.60 dB 3:45 05-Miss Your Face
DR6 0.00 dB -7.00 dB 4:30 06-The Art of Eye Contact
DR6 0.00 dB -7.43 dB 3:50 07-Modern Love Affair
DR6 0.00 dB -6.65 dB 3:33 08-Inside Voices
DR6 0.00 dB -7.09 dB 4:02 09-What a Shame
DR6 0.00 dB -6.74 dB 4:05 10-For Your Sake
DR5 0.00 dB -6.25 dB 4:37 11-Eiley
––––––––––––––––––––––––––––––––––––––––

Number of tracks: 11
Official DR value: DR6

Samplerate: 44100 Hz
Channels: 2
Bits per sample: 24
Bitrate: 1762 kbps
Codec: FLAC
================================================================================


Thanks to the Original customer!