Uriah Heep - Your Turn To Remember: The Definitive Anthology 1970-1990 (Vinyl 2xLP) (2016/2018) [24bit/192kHz]

Posted By: delpotro
Uriah Heep - Your Turn To Remember: The Definitive Anthology 1970-1990 (Vinyl 2xLP) (2016/2018) [24bit/192kHz]

Uriah Heep - Your Turn To Remember: The Definitive Anthology 1970-1990 (Vinyl 2xLP) (2016/2018)
Vinyl Rip | FLAC (tracks) 24-bit/192 kHz | Front Cover | Time - 119:18 minutes | 4,27 GB
Hard Rock | Label: BMG Rights Management

BMG are delighted to announce the release of the Uriah Heep anthology, ‘Your Turn To Remember: The Definitive Anthology 1970-1990’ on LP. Evoking an era when prog, hard rock and heavy metal co-existed in an era of glorious, boundary-breaking music, the songs trace the evolution of Heep from inexperienced studio musicians with everything to prove to bona fide, limo inhabiting rock stars. The Anthology cherry picks tracks from some of Heep’s most celebrated albums including ‘Demons And Wizards’, ‘Look At Yourself’, ‘Return To Fantasy’, ‘Equator’, ‘Conquest’ and ‘The Magician’s Birthday’. Continues the extensive anthology / reissue programme curated by Heep’s founder member Mick Box. 2LP anthology including the classic hits and must have album cuts from the band’s most creative period. Re-mastered by renowned engineer Andy Pearce of Lou Reed and Black Sabbath fame.

Tracklist:
A1 – Gypsy
A2 – Bird Of Prey
A3 – Lady In Black
A4 – Look At Yourself
A5 – July Morning
B1 – Easy Livin'
B2 – The Wizard
B3 – Sunrise
B4 – Sweet Lorraine
B5 – Stealin'
B6 – Sweet Freedom
B7 – Suicidal Man
C1 – Return To Fantasy
C2 – Devil's Daughter
C3 – Sympathy
C4 – Firefly
C5 – Free 'N' Easy
C6 – Free Me
D1 – Woman Of The Night
D2 – Come Back To Me
D3 – It Ain't Easy
D4 – Too Scared To Run
D5 – The Other Side Of Midnight
D6 – Rockarama
D7 – Voice On My TV

foobar2000 1.4.1 / Dynamic Range Meter 1.1.1
log date: 2020-06-29 18:00:28

––––––––––––––––––––––––––––––––––––––––
Analyzed: Uriah Heep / Your Turn To Remember - The Definitive Anthology 1970-1990
––––––––––––––––––––––––––––––––––––––––

DR Peak RMS Duration Track
––––––––––––––––––––––––––––––––––––––––
DR13 -4.41 dB -20.31 dB 4:27 01-Gypsy
DR12 -4.83 dB -19.33 dB 6:29 02-Bird Of Prey
DR12 -3.70 dB -20.13 dB 4:42 03-Lady In Black
DR12 -5.79 dB -19.62 dB 5:11 04-Look At Yourself
DR11 -5.26 dB -19.66 dB 10:34 05-July Morning
DR11 -4.79 dB -16.77 dB 2:41 06-Easy Livin'
DR13 -3.94 dB -20.91 dB 3:02 07-The Wizard
DR11 -4.08 dB -18.93 dB 4:01 08-Sunrise
DR10 -1.54 dB -17.17 dB 4:15 09-Sweet Lorraine
DR11 -5.67 dB -19.95 dB 4:51 10-Stealin'
DR12 -6.16 dB -20.16 dB 6:28 11-Sweet Freedom
DR12 -5.59 dB -19.69 dB 3:42 12-Suicidal Man
DR11 -6.01 dB -18.91 dB 5:49 13-Return To Fantasy
DR12 -5.39 dB -21.02 dB 4:49 14-Devil's Daughter
DR12 -6.54 dB -20.14 dB 4:42 15-Sympathy
DR13 -5.68 dB -23.19 dB 6:17 16-Firefly
DR12 -6.40 dB -19.92 dB 3:05 17-Free 'N' Easy
DR13 -5.56 dB -21.47 dB 3:34 18-Free Me
DR12 -5.63 dB -19.38 dB 4:08 19-Woman Of The Night
DR13 -5.79 dB -21.25 dB 4:21 20-Come Back To Me
DR12 -5.67 dB -21.83 dB 5:38 21-It Ain't Easy
DR11 0.00 dB -18.97 dB 3:49 22-Too Scared To Run
DR12 -5.24 dB -19.97 dB 3:57 23-The Other Side Of Midnight
DR11 -5.65 dB -18.68 dB 4:32 24-Rockarama
DR11 -5.12 dB -19.78 dB 4:18 25-Voice On My TV
––––––––––––––––––––––––––––––––––––––––

Number of tracks: 25
Official DR value: DR12

Samplerate: 192000 Hz
Channels: 2
Bits per sample: 24
Bitrate: 5132 kbps
Codec: FLAC
================================================================================


Vinyl Class: Mint
Turntable: Unitra G-602 Hi-Fi + Ortofon 2M Red
Behringer U-PHORIA UMC202HD
Manual de-clicking
Ripped 24/192

Thanks to the Original customer!