Tags
Language
Tags
June 2024
Su Mo Tu We Th Fr Sa
26 27 28 29 30 31 1
2 3 4 5 6 7 8
9 10 11 12 13 14 15
16 17 18 19 20 21 22
23 24 25 26 27 28 29
30 1 2 3 4 5 6

Viera Janárceková - Dotyk (2023) [Official Digital Download 24/48]

Posted By: delpotro
Viera Janárceková - Dotyk (2023) [Official Digital Download 24/48]

Viera Janárceková, Eric Lamb, Maria Fedotova, Barbara Brauckmann, Hellmuth Vivell, Quasars Ensemble, Kremerata Baltica, Bamberger Symphoniker, Ivan Buffa, Roman Kofman & Jonathan Nott - Dotyk (2023)
FLAC (tracks) 24-bit/48 kHz | Front Cover & Digital Booklet | Time - 69:25 minutes | 736 MB
Classical | Label: Kairos, Official Digital Download

"Janárceková's intellectually unpretentious expressionist music never runs the risk of becoming cliche-infected: her will to express herself and her awareness of fragmentariness combine in a subtle sensuality of sound. At every moment the music seems to be 'appropriate': far removed from triviality, and away from fashionable contemplative platitudes." (Dirk Wieschollek) The Slovak Quasars ensemble's conductor Ivan Buffa also doubles as the piano soloist with the Bamberg Symphony in the piano concerto of Viera Janárceková, who surely must be counted as one of the most distinguished female voices in today's European composition landscape.

Tracklist:
01. Arkádia
02. Dotyk
03. A Midsummer Night’s Dream
04. Concerto per pianoforte

foobar2000 1.4.1 / Dynamic Range Meter 1.1.1
log date: 2024-04-21 16:26:02

––––––––––––––––––––––––––––––––––––––––
Analyzed: Eric Lamb / Viera Janárčeková: Dotyk (1)
Ivan Buffa / Viera Janárčeková: Dotyk (2)
Kremerata Baltica / Viera Janárčeková: Dotyk (3)
Maria Fedotova / Viera Janárčeková: Dotyk (4)
––––––––––––––––––––––––––––––––––––––––

DR Peak RMS Duration Track
––––––––––––––––––––––––––––––––––––––––
DR10 -0.30 dB -14.78 dB 16:49 01-Arkádia (1998/New version 2021) for bass flute solo and Strings
DR13 0.00 dB -18.01 dB 24:47 04-Concerto per pianoforte (2008)
DR17 -0.30 dB -22.84 dB 11:03 02-Dotyk (1996) for string Orchestra
DR16 -0.30 dB -21.63 dB 16:47 03-A Midsummer Night's Dream (2008) for flute, cello and Piano
––––––––––––––––––––––––––––––––––––––––

Number of tracks: 4
Official DR value: DR14

Samplerate: 48000 Hz
Channels: 2
Bits per sample: 24
Bitrate: 1406 kbps
Codec: FLAC
================================================================================


Thanks to the Original customer!