Tags
Language
Tags

Warren Haynes - 2021-06-30 - Eatontown, NJ (2021) [Official Digital Download 24/48]

Posted By: delpotro
Warren Haynes - 2021-06-30 - Eatontown, NJ (2021) [Official Digital Download 24/48]

Warren Haynes - 2021-06-30 - Eatontown, NJ (2021)
FLAC (tracks) 24-bit/48 kHz | Front Cover | Time - 110:09 minutes | 1,1 GB
Blues Rock, Singer-Songwriter | Label: nugs net, Official Digital Download

Warren Haynes debuted a cover of Bruce Springsteen’s “One Step Up” the Garden State Wednesday, Jun. 30, 2021. Yesterday marked the second evening of Haynes’ solo tour, which will continue for four more nights throughout the Northeast and two nights in Colorado. Haynes played an array of tracks from his various projects; The Allman Brothers Band, Gov’t Mule, along with his solo work. He also played a great selection of covers from artists George Harrison, Tampa Red, Van Morrison, Jim Croce, Blind Willie Johnson, U2, Jimmy Cox, John Prince, Kenny Neal, Tom Petty, Reverend Gary Davis, and of course, Jersey’s own Bruce Springsteen. His tour is sure to continue to display a wide selection of timeless classics from music legends by a legend in his own right.

Tracklist:
Disc 1
01. I'll Be the One
02. It Hurts Me Too
03. Cypress Avenue
04. One Step Up
05. Give Me Love (Give Me Peace On Earth)
06. Hattiesburg Hustle
07. Glory Road
08. Roller Derby Queen
09. I Shall Return

Disc 2
01. One
02. Nobody Knows You When You're Down And Out
03. A Friend To You
04. If Heartaches Were Nickels
05. Hello In There
06. Fallen Down
07. Death Don't Have No Mercy
08. Fallen Down
09. Railroad Boy
10. Southern Accents
11. Melissa

foobar2000 1.4.1 / Dynamic Range Meter 1.1.1
log date: 2021-07-25 15:27:50

––––––––––––––––––––––––––––––––––––––––
Analyzed: Warren Haynes / 2021/06/30 Eatontown, NJ
––––––––––––––––––––––––––––––––––––––––

DR Peak RMS Duration Track
––––––––––––––––––––––––––––––––––––––––
DR8 -0.30 dB -12.10 dB 6:54 01-I'll Be the One
DR9 -0.31 dB -11.61 dB 5:43 02-It Hurts Me Too
DR9 -0.31 dB -12.53 dB 5:50 03-Cypress Avenue
DR10 -0.31 dB -13.58 dB 5:10 04-One Step Up
DR8 -0.34 dB -12.38 dB 5:34 05-Give Me Love (Give Me Peace On Earth)
DR8 -0.30 dB -10.33 dB 6:04 06-Hattiesburg Hustle
DR7 -0.30 dB -9.68 dB 4:57 07-Glory Road
DR7 -0.30 dB -9.83 dB 5:14 08-Roller Derby Queen
DR6 -0.30 dB -9.45 dB 5:22 09-I Shall Return
DR6 -0.30 dB -7.97 dB 5:26 01-One
DR8 -0.30 dB -10.35 dB 4:34 02-Nobody Knows You When You're Down And Out
DR7 -0.30 dB -9.09 dB 6:19 03-A Friend To You
DR8 -0.30 dB -11.29 dB 5:26 04-If Heartaches Were Nickels
DR9 -0.34 dB -12.59 dB 5:00 05-Hello In There
DR7 -0.31 dB -9.84 dB 6:25 06-Fallen Down
DR7 -0.30 dB -9.90 dB 2:37 07-Death Don't Have No Mercy
DR7 -0.30 dB -12.42 dB 4:32 08-Fallen Down
DR6 -0.30 dB -8.94 dB 10:12 09-Railroad Boy
DR7 -0.32 dB -10.26 dB 3:30 10-Southern Accents
DR7 -0.31 dB -9.11 dB 5:20 11-Melissa
––––––––––––––––––––––––––––––––––––––––

Number of tracks: 20
Official DR value: DR7

Samplerate: 48000 Hz
Channels: 2
Bits per sample: 24
Bitrate: 1413 kbps
Codec: FLAC
================================================================================


Thanks to the Original customer!