Tags
Language
Tags

Yes - Relayer (1974/2014) [High Fidelity Pure Audio Blu-Ray Disc+FLAC]

Posted By: HDV
Yes - Relayer (1974/2014) [High Fidelity Pure Audio Blu-Ray Disc+FLAC]

Yes - Relayer (1974/2014) [High Fidelity Pure Audio Blu-Ray Disc]
Blu-Ray: LPCM 2.0 & 5.1 24bit/96(192)kHz and DTS-HD Master Audio 5.1 24bit/96kHz | 22,84 GB
FLAC: 2.0 Stereo | Tracks 24bit/96kHz(192) - 7,45 GB; Includes Extas | Booklet/Artwork - 50 MB

"Relayer" is the third in a series of remixed and expanded Yes albums. Presented in a mini vinyl replica gatefold card sleeve with booklet featuring new sleeve notes by Sid Smith, along with rare photos and archive material, the album has been remixed into stereo and 5.1 Surround Sound from the original studio masters by Steven Wilson and is fully approved by Yes. Also includes the original mix in high resolution, and bonus material.

Yes had fallen out of critical favor with Tales from Topographic Oceans, a two-record set of four songs that reviewers found indulgent. But they had not fallen out of the Top Ten, and so they had little incentive to curb their musical ambitiousness. Relayer, released 11 months after Tales, was a single-disc, three-song album, its music organized into suites that alternated abrasive, rhythmically dense instrumental sections featuring solos for the various instruments with delicate vocal and choral sections featuring poetic lyrics devoted to spiritual imagery. Such compositions seemed intended to provide an interesting musical landscape over which the listener might travel, and enough Yes fans did that to make Relayer a Top Ten, gold-selling hit, though critics continued to complain about the lack of concise, coherent song structures.

Blu-Ray content:

2014 Surround Mixes (LPCM 5.1 - 24/96)

01 - The Gates Of Delirium
02 - Sound Chaser
03 - To Be Over

Disc Title: YES_RELAYER
Disc Size: 25 166 738 427 bytes
Protection: AACS
BD-Java: Yes
BDInfo: 0.5.8

Notes:

BDINFO HOME:
Cinema Squid
http://www.cinemasquid.com/blu-ray/tools/bdinfo

INCLUDES FORUMS REPORT FOR:
AVS Forum Blu-ray Audio and Video Specifications Thread
http://www.avsforum.com/avs-vb/showthread.php?t=1155731

WARNING: Report is incomplete because: Scan has not been run.

********************
PLAYLIST: 00008.MPLS
********************

<–- BEGIN FORUMS PASTE –->

Total Video
Title Codec Length Movie Size Disc Size Bitrate Bitrate Main Audio Track Secondary Audio Track
––- ––– –––- ––––––– ––––––– –––- –––- ––––––––– ––––––––––-
00008.MPLS AVC 0:48:01 0 25 166 738 427 0,00 0,00 LPCM 2.0 4608Kbps (96kHz/24-bit)




DISC INFO:

Disc Title: YES_RELAYER
Disc Size: 25 166 738 427 bytes
Protection: AACS
BD-Java: Yes
BDInfo: 0.5.8

PLAYLIST REPORT:

Name: 00008.MPLS
Length: 0:48:01.253 (h:m:s.ms)
Size: 0 bytes
Total Bitrate: 0,00 Mbps

VIDEO:

Codec Bitrate Description
––- –––- –––––-
MPEG-4 AVC Video 0 kbps 1080p / 23,976 fps / 16:9 / High Profile 4.1

AUDIO:

Codec Language Bitrate Description
––- –––– –––- –––––-
LPCM Audio English 4608 kbps 2.0 / 96 kHz / 4608 kbps / 24-bit

FILES:

Name Time In Length Size Total Bitrate
–– –––- ––– –– ––––––-
00008.M2TS 0:00:00.000 0:48:01.253 0 0

CHAPTERS:

Number Time In Length Avg Video Rate Max 1-Sec Rate Max 1-Sec Time Max 5-Sec Rate Max 5-Sec Time Max 10Sec Rate Max 10Sec Time Avg Frame Size Max Frame Size Max Frame Time
––– –––- ––– ––––––– ––––––– ––––––– ––––––– ––––––– ––––––– ––––––– ––––––– ––––––– –––––––
1 0:00:00.000 0:04:11.251 0 kbps 0 kbps 00:00:00.000 0 kbps 00:00:00.000 0 kbps 00:00:00.000 0 bytes 0 bytes 00:00:00.000
2 0:04:11.251 0:03:10.190 0 kbps 0 kbps 00:00:00.000 0 kbps 00:00:00.000 0 kbps 00:00:00.000 0 bytes 0 bytes 00:00:00.000
3 0:07:21.441 0:21:17.526 0 kbps 0 kbps 00:00:00.000 0 kbps 00:00:00.000 0 kbps 00:00:00.000 0 bytes 0 bytes 00:00:00.000
4 0:28:38.967 0:11:17.343 0 kbps 0 kbps 00:00:00.000 0 kbps 00:00:00.000 0 kbps 00:00:00.000 0 bytes 0 bytes 00:00:00.000
5 0:39:56.310 0:08:04.942 0 kbps 0 kbps 00:00:00.000 0 kbps 00:00:00.000 0 kbps 00:00:00.000 0 bytes 0 bytes 00:00:00.000

STREAM DIAGNOSTICS:

File PID Type Codec Language Seconds Bitrate Bytes Packets
–– –- –– ––- –––– ––––––– ––––––– ––––––- ––-
00008.M2TS 4113 (0x1011) 0x1B AVC 0,042 0 0 0
00008.M2TS 4352 (0x1100) 0x80 LPCM eng (English) 0,042 0 0 0


<–– END FORUMS PASTE ––>

QUICK SUMMARY:

Disc Title: YES_RELAYER
Disc Size: 25 166 738 427 bytes
Protection: AACS
BD-Java: Yes
Playlist: 00008.MPLS
Size: 0 bytes
Length: 0:48:01.253
Total Bitrate: 0,00 Mbps
Video: MPEG-4 AVC Video / 0 kbps / 1080p / 23,976 fps / 16:9 / High Profile 4.1
Audio: English / LPCM Audio / 2.0 / 96 kHz / 4608 kbps / 24-bit


********************
PLAYLIST: 00006.MPLS
********************

<–- BEGIN FORUMS PASTE –->

Total Video
Title Codec Length Movie Size Disc Size Bitrate Bitrate Main Audio Track Secondary Audio Track
––- ––– –––- ––––––– ––––––– –––- –––- ––––––––– ––––––––––-
00006.MPLS AVC 0:40:46 0 25 166 738 427 0,00 0,00 LPCM 2.0 4608Kbps (96kHz/24-bit)




DISC INFO:

Disc Title: YES_RELAYER
Disc Size: 25 166 738 427 bytes
Protection: AACS
BD-Java: Yes
BDInfo: 0.5.8

PLAYLIST REPORT:

Name: 00006.MPLS
Length: 0:40:46.402 (h:m:s.ms)
Size: 0 bytes
Total Bitrate: 0,00 Mbps

VIDEO:

Codec Bitrate Description
––- –––- –––––-
MPEG-4 AVC Video 0 kbps 1080p / 23,976 fps / 16:9 / High Profile 4.1

AUDIO:

Codec Language Bitrate Description
––- –––– –––- –––––-
LPCM Audio English 4608 kbps 2.0 / 96 kHz / 4608 kbps / 24-bit

FILES:

Name Time In Length Size Total Bitrate
–– –––- ––– –– ––––––-
00006.M2TS 0:00:00.000 0:40:46.402 0 0

CHAPTERS:

Number Time In Length Avg Video Rate Max 1-Sec Rate Max 1-Sec Time Max 5-Sec Rate Max 5-Sec Time Max 10Sec Rate Max 10Sec Time Avg Frame Size Max Frame Size Max Frame Time
––– –––- ––– ––––––– ––––––– ––––––– ––––––– ––––––– ––––––– ––––––– ––––––– ––––––– –––––––
1 0:00:00.000 0:22:33.352 0 kbps 0 kbps 00:00:00.000 0 kbps 00:00:00.000 0 kbps 00:00:00.000 0 bytes 0 bytes 00:00:00.000
2 0:22:33.352 0:09:35.575 0 kbps 0 kbps 00:00:00.000 0 kbps 00:00:00.000 0 kbps 00:00:00.000 0 bytes 0 bytes 00:00:00.000
3 0:32:08.927 0:08:37.475 0 kbps 0 kbps 00:00:00.000 0 kbps 00:00:00.000 0 kbps 00:00:00.000 0 bytes 0 bytes 00:00:00.000

STREAM DIAGNOSTICS:

File PID Type Codec Language Seconds Bitrate Bytes Packets
–– –- –– ––- –––– ––––––– ––––––– ––––––- ––-
00006.M2TS 4113 (0x1011) 0x1B AVC 0,042 0 0 0
00006.M2TS 4352 (0x1100) 0x80 LPCM eng (English) 0,042 0 0 0


<–– END FORUMS PASTE ––>

QUICK SUMMARY:

Disc Title: YES_RELAYER
Disc Size: 25 166 738 427 bytes
Protection: AACS
BD-Java: Yes
Playlist: 00006.MPLS
Size: 0 bytes
Length: 0:40:46.402
Total Bitrate: 0,00 Mbps
Video: MPEG-4 AVC Video / 0 kbps / 1080p / 23,976 fps / 16:9 / High Profile 4.1
Audio: English / LPCM Audio / 2.0 / 96 kHz / 4608 kbps / 24-bit


********************
PLAYLIST: 00004.MPLS
********************

<–- BEGIN FORUMS PASTE –->

Total Video
Title Codec Length Movie Size Disc Size Bitrate Bitrate Main Audio Track Secondary Audio Track
––- ––– –––- ––––––– ––––––– –––- –––- ––––––––– ––––––––––-
00004.MPLS AVC 0:40:42 0 25 166 738 427 0,00 0,00 LPCM 2.0 4608Kbps (96kHz/24-bit) DTS-HD Master 5.1 (96kHz/24-bit)




DISC INFO:

Disc Title: YES_RELAYER
Disc Size: 25 166 738 427 bytes
Protection: AACS
BD-Java: Yes
BDInfo: 0.5.8

PLAYLIST REPORT:

Name: 00004.MPLS
Length: 0:40:42.481 (h:m:s.ms)
Size: 0 bytes
Total Bitrate: 0,00 Mbps

VIDEO:

Codec Bitrate Description
––- –––- –––––-
MPEG-4 AVC Video 0 kbps 1080p / 23,976 fps / 16:9 / High Profile 4.1

AUDIO:

Codec Language Bitrate Description
––- –––– –––- –––––-
LPCM Audio English 4608 kbps 2.0 / 96 kHz / 4608 kbps / 24-bit
DTS-HD Master Audio English 0 kbps 5.1 / 96 kHz / 24-bit (DTS Core: 5.1 / 48 kHz / 1509 kbps / 24-bit)
LPCM Audio English 13824 kbps 5.1 / 96 kHz / 13824 kbps / 24-bit

FILES:

Name Time In Length Size Total Bitrate
–– –––- ––– –– ––––––-
00005.M2TS 0:00:00.000 0:40:42.481 0 0

CHAPTERS:

Number Time In Length Avg Video Rate Max 1-Sec Rate Max 1-Sec Time Max 5-Sec Rate Max 5-Sec Time Max 10Sec Rate Max 10Sec Time Avg Frame Size Max Frame Size Max Frame Time
––– –––- ––– ––––––– ––––––– ––––––– ––––––– ––––––– ––––––– ––––––– ––––––– ––––––– –––––––
1 0:00:00.000 0:22:00.319 0 kbps 0 kbps 00:00:00.000 0 kbps 00:00:00.000 0 kbps 00:00:00.000 0 bytes 0 bytes 00:00:00.000
2 0:22:00.319 0:09:29.569 0 kbps 0 kbps 00:00:00.000 0 kbps 00:00:00.000 0 kbps 00:00:00.000 0 bytes 0 bytes 00:00:00.000
3 0:31:29.888 0:09:12.593 0 kbps 0 kbps 00:00:00.000 0 kbps 00:00:00.000 0 kbps 00:00:00.000 0 bytes 0 bytes 00:00:00.000

STREAM DIAGNOSTICS:

File PID Type Codec Language Seconds Bitrate Bytes Packets
–– –- –– ––- –––– ––––––– ––––––– ––––––- ––-
00005.M2TS 4113 (0x1011) 0x1B AVC 0,042 0 0 0
00005.M2TS 4352 (0x1100) 0x80 LPCM eng (English) 0,042 0 0 0
00005.M2TS 4353 (0x1101) 0x86 DTS-HD MA eng (English) 0,042 0 0 0
00005.M2TS 4354 (0x1102) 0x80 LPCM eng (English) 0,042 0 0 0


<–– END FORUMS PASTE ––>

QUICK SUMMARY:

Disc Title: YES_RELAYER
Disc Size: 25 166 738 427 bytes
Protection: AACS
BD-Java: Yes
Playlist: 00004.MPLS
Size: 0 bytes
Length: 0:40:42.481
Total Bitrate: 0,00 Mbps
Video: MPEG-4 AVC Video / 0 kbps / 1080p / 23,976 fps / 16:9 / High Profile 4.1
Audio: English / LPCM Audio / 2.0 / 96 kHz / 4608 kbps / 24-bit
Audio: English / DTS-HD Master Audio / 5.1 / 96 kHz / 24-bit (DTS Core: 5.1 / 48 kHz / 1509 kbps / 24-bit)
Audio: English / LPCM Audio / 5.1 / 96 kHz / 13824 kbps / 24-bit


********************
PLAYLIST: 00007.MPLS
********************

<–- BEGIN FORUMS PASTE –->

Total Video
Title Codec Length Movie Size Disc Size Bitrate Bitrate Main Audio Track Secondary Audio Track
––- ––– –––- ––––––– ––––––– –––- –––- ––––––––– ––––––––––-
00007.MPLS AVC 0:40:42 0 25 166 738 427 0,00 0,00 LPCM 2.0 4608Kbps (96kHz/24-bit)




DISC INFO:

Disc Title: YES_RELAYER
Disc Size: 25 166 738 427 bytes
Protection: AACS
BD-Java: Yes
BDInfo: 0.5.8

PLAYLIST REPORT:

Name: 00007.MPLS
Length: 0:40:42.481 (h:m:s.ms)
Size: 0 bytes
Total Bitrate: 0,00 Mbps

VIDEO:

Codec Bitrate Description
––- –––- –––––-
MPEG-4 AVC Video 0 kbps 1080p / 23,976 fps / 16:9 / High Profile 4.1

AUDIO:

Codec Language Bitrate Description
––- –––– –––- –––––-
LPCM Audio English 4608 kbps 2.0 / 96 kHz / 4608 kbps / 24-bit

FILES:

Name Time In Length Size Total Bitrate
–– –––- ––– –– ––––––-
00007.M2TS 0:00:00.000 0:40:42.481 0 0

CHAPTERS:

Number Time In Length Avg Video Rate Max 1-Sec Rate Max 1-Sec Time Max 5-Sec Rate Max 5-Sec Time Max 10Sec Rate Max 10Sec Time Avg Frame Size Max Frame Size Max Frame Time
––– –––- ––– ––––––– ––––––– ––––––– ––––––– ––––––– ––––––– ––––––– ––––––– ––––––– –––––––
1 0:00:00.000 0:22:00.319 0 kbps 0 kbps 00:00:00.000 0 kbps 00:00:00.000 0 kbps 00:00:00.000 0 bytes 0 bytes 00:00:00.000
2 0:22:00.319 0:09:29.569 0 kbps 0 kbps 00:00:00.000 0 kbps 00:00:00.000 0 kbps 00:00:00.000 0 bytes 0 bytes 00:00:00.000
3 0:31:29.888 0:09:12.593 0 kbps 0 kbps 00:00:00.000 0 kbps 00:00:00.000 0 kbps 00:00:00.000 0 bytes 0 bytes 00:00:00.000

STREAM DIAGNOSTICS:

File PID Type Codec Language Seconds Bitrate Bytes Packets
–– –- –– ––- –––– ––––––– ––––––– ––––––- ––-
00007.M2TS 4113 (0x1011) 0x1B AVC 0,042 0 0 0
00007.M2TS 4352 (0x1100) 0x80 LPCM eng (English) 0,042 0 0 0


<–– END FORUMS PASTE ––>

QUICK SUMMARY:

Disc Title: YES_RELAYER
Disc Size: 25 166 738 427 bytes
Protection: AACS
BD-Java: Yes
Playlist: 00007.MPLS
Size: 0 bytes
Length: 0:40:42.481
Total Bitrate: 0,00 Mbps
Video: MPEG-4 AVC Video / 0 kbps / 1080p / 23,976 fps / 16:9 / High Profile 4.1
Audio: English / LPCM Audio / 2.0 / 96 kHz / 4608 kbps / 24-bit


********************
PLAYLIST: 00005.MPLS
********************

<–- BEGIN FORUMS PASTE –->

Total Video
Title Codec Length Movie Size Disc Size Bitrate Bitrate Main Audio Track Secondary Audio Track
––- ––– –––- ––––––– ––––––– –––- –––- ––––––––– ––––––––––-
00005.MPLS AVC 0:40:38 0 25 166 738 427 0,00 0,00 DTS-HD Master 2.0 (192kHz/24-bit)




DISC INFO:

Disc Title: YES_RELAYER
Disc Size: 25 166 738 427 bytes
Protection: AACS
BD-Java: Yes
BDInfo: 0.5.8

PLAYLIST REPORT:

Name: 00005.MPLS
Length: 0:40:38.144 (h:m:s.ms)
Size: 0 bytes
Total Bitrate: 0,00 Mbps

VIDEO:

Codec Bitrate Description
––- –––- –––––-
MPEG-4 AVC Video 0 kbps 1080p / 23,976 fps / 16:9 / High Profile 4.1

AUDIO:

Codec Language Bitrate Description
––- –––– –––- –––––-
DTS-HD Master Audio English 0 kbps 2.0 / 192 kHz / 24-bit (DTS Core: 2.0 / 48 kHz / 1509 kbps / 24-bit)

FILES:

Name Time In Length Size Total Bitrate
–– –––- ––– –– ––––––-
00001.M2TS 0:00:00.000 0:40:38.144 0 0

CHAPTERS:

Number Time In Length Avg Video Rate Max 1-Sec Rate Max 1-Sec Time Max 5-Sec Rate Max 5-Sec Time Max 10Sec Rate Max 10Sec Time Avg Frame Size Max Frame Size Max Frame Time
––– –––- ––– ––––––– ––––––– ––––––– ––––––– ––––––– ––––––– ––––––– ––––––– ––––––– –––––––
1 0:00:00.000 0:21:55.314 0 kbps 0 kbps 00:00:00.000 0 kbps 00:00:00.000 0 kbps 00:00:00.000 0 bytes 0 bytes 00:00:00.000
2 0:21:55.314 0:09:28.568 0 kbps 0 kbps 00:00:00.000 0 kbps 00:00:00.000 0 kbps 00:00:00.000 0 bytes 0 bytes 00:00:00.000
3 0:31:23.882 0:09:14.262 0 kbps 0 kbps 00:00:00.000 0 kbps 00:00:00.000 0 kbps 00:00:00.000 0 bytes 0 bytes 00:00:00.000

STREAM DIAGNOSTICS:

File PID Type Codec Language Seconds Bitrate Bytes Packets
–– –- –– ––- –––– ––––––– ––––––– ––––––- ––-
00001.M2TS 4113 (0x1011) 0x1B AVC 0,042 0 0 0
00001.M2TS 4352 (0x1100) 0x86 DTS-HD MA eng (English) 0,042 0 0 0


<–– END FORUMS PASTE ––>

QUICK SUMMARY:

Disc Title: YES_RELAYER
Disc Size: 25 166 738 427 bytes
Protection: AACS
BD-Java: Yes
Playlist: 00005.MPLS
Size: 0 bytes
Length: 0:40:38.144
Total Bitrate: 0,00 Mbps
Video: MPEG-4 AVC Video / 0 kbps / 1080p / 23,976 fps / 16:9 / High Profile 4.1
Audio: English / DTS-HD Master Audio / 2.0 / 192 kHz / 24-bit (DTS Core: 2.0 / 48 kHz / 1509 kbps / 24-bit)


********************
PLAYLIST: 00010.MPLS
********************

<–- BEGIN FORUMS PASTE –->

Total Video
Title Codec Length Movie Size Disc Size Bitrate Bitrate Main Audio Track Secondary Audio Track
––- ––– –––- ––––––– ––––––– –––- –––- ––––––––– ––––––––––-
00010.MPLS AVC 0:40:31 0 25 166 738 427 0,00 0,00 LPCM 2.0 4608Kbps (96kHz/24-bit)




DISC INFO:

Disc Title: YES_RELAYER
Disc Size: 25 166 738 427 bytes
Protection: AACS
BD-Java: Yes
BDInfo: 0.5.8

PLAYLIST REPORT:

Name: 00010.MPLS
Length: 0:40:31.929 (h:m:s.ms)
Size: 0 bytes
Total Bitrate: 0,00 Mbps

VIDEO:

Codec Bitrate Description
––- –––- –––––-
MPEG-4 AVC Video 0 kbps 1080p / 23,976 fps / 16:9 / High Profile 4.1

AUDIO:

Codec Language Bitrate Description
––- –––– –––- –––––-
LPCM Audio English 4608 kbps 2.0 / 96 kHz / 4608 kbps / 24-bit

FILES:

Name Time In Length Size Total Bitrate
–– –––- ––– –– ––––––-
00010.M2TS 0:00:00.000 0:40:31.929 0 0

CHAPTERS:

Number Time In Length Avg Video Rate Max 1-Sec Rate Max 1-Sec Time Max 5-Sec Rate Max 5-Sec Time Max 10Sec Rate Max 10Sec Time Avg Frame Size Max Frame Size Max Frame Time
––– –––- ––– ––––––– ––––––– ––––––– ––––––– ––––––– ––––––– ––––––– ––––––– ––––––– –––––––
1 0:00:00.000 0:21:52.311 0 kbps 0 kbps 00:00:00.000 0 kbps 00:00:00.000 0 kbps 00:00:00.000 0 bytes 0 bytes 00:00:00.000
2 0:21:52.311 0:09:29.569 0 kbps 0 kbps 00:00:00.000 0 kbps 00:00:00.000 0 kbps 00:00:00.000 0 bytes 0 bytes 00:00:00.000
3 0:31:21.880 0:09:10.049 0 kbps 0 kbps 00:00:00.000 0 kbps 00:00:00.000 0 kbps 00:00:00.000 0 bytes 0 bytes 00:00:00.000

STREAM DIAGNOSTICS:

File PID Type Codec Language Seconds Bitrate Bytes Packets
–– –- –– ––- –––– ––––––– ––––––– ––––––- ––-
00010.M2TS 4113 (0x1011) 0x1B AVC 0,042 0 0 0
00010.M2TS 4352 (0x1100) 0x80 LPCM eng (English) 0,042 0 0 0


<–– END FORUMS PASTE ––>

QUICK SUMMARY:

Disc Title: YES_RELAYER
Disc Size: 25 166 738 427 bytes
Protection: AACS
BD-Java: Yes
Playlist: 00010.MPLS
Size: 0 bytes
Length: 0:40:31.929
Total Bitrate: 0,00 Mbps
Video: MPEG-4 AVC Video / 0 kbps / 1080p / 23,976 fps / 16:9 / High Profile 4.1
Audio: English / LPCM Audio / 2.0 / 96 kHz / 4608 kbps / 24-bit


********************
PLAYLIST: 00009.MPLS
********************

<–- BEGIN FORUMS PASTE –->

Total Video
Title Codec Length Movie Size Disc Size Bitrate Bitrate Main Audio Track Secondary Audio Track
––- ––– –––- ––––––– ––––––– –––- –––- ––––––––– ––––––––––-
00009.MPLS AVC 0:40:27 0 25 166 738 427 0,00 0,00 LPCM 2.0 4608Kbps (96kHz/24-bit)




DISC INFO:

Disc Title: YES_RELAYER
Disc Size: 25 166 738 427 bytes
Protection: AACS
BD-Java: Yes
BDInfo: 0.5.8

PLAYLIST REPORT:

Name: 00009.MPLS
Length: 0:40:27.216 (h:m:s.ms)
Size: 0 bytes
Total Bitrate: 0,00 Mbps

VIDEO:

Codec Bitrate Description
––- –––- –––––-
MPEG-4 AVC Video 0 kbps 1080p / 23,976 fps / 16:9 / High Profile 4.1

AUDIO:

Codec Language Bitrate Description
––- –––– –––- –––––-
LPCM Audio English 4608 kbps 2.0 / 96 kHz / 4608 kbps / 24-bit

FILES:

Name Time In Length Size Total Bitrate
–– –––- ––– –– ––––––-
00009.M2TS 0:00:00.000 0:40:27.216 0 0

CHAPTERS:

Number Time In Length Avg Video Rate Max 1-Sec Rate Max 1-Sec Time Max 5-Sec Rate Max 5-Sec Time Max 10Sec Rate Max 10Sec Time Avg Frame Size Max Frame Size Max Frame Time
––– –––- ––– ––––––– ––––––– ––––––– ––––––– ––––––– ––––––– ––––––– ––––––– ––––––– –––––––
1 0:00:00.000 0:21:51.310 0 kbps 0 kbps 00:00:00.000 0 kbps 00:00:00.000 0 kbps 00:00:00.000 0 bytes 0 bytes 00:00:00.000
2 0:21:51.310 0:09:28.568 0 kbps 0 kbps 00:00:00.000 0 kbps 00:00:00.000 0 kbps 00:00:00.000 0 bytes 0 bytes 00:00:00.000
3 0:31:19.878 0:09:07.338 0 kbps 0 kbps 00:00:00.000 0 kbps 00:00:00.000 0 kbps 00:00:00.000 0 bytes 0 bytes 00:00:00.000

STREAM DIAGNOSTICS:

File PID Type Codec Language Seconds Bitrate Bytes Packets
–– –- –– ––- –––– ––––––– ––––––– ––––––- ––-
00009.M2TS 4113 (0x1011) 0x1B AVC 0,042 0 0 0
00009.M2TS 4352 (0x1100) 0x80 LPCM eng (English) 0,042 0 0 0


<–– END FORUMS PASTE ––>

QUICK SUMMARY:

Disc Title: YES_RELAYER
Disc Size: 25 166 738 427 bytes
Protection: AACS
BD-Java: Yes
Playlist: 00009.MPLS
Size: 0 bytes
Length: 0:40:27.216
Total Bitrate: 0,00 Mbps
Video: MPEG-4 AVC Video / 0 kbps / 1080p / 23,976 fps / 16:9 / High Profile 4.1
Audio: English / LPCM Audio / 2.0 / 96 kHz / 4608 kbps / 24-bit


********************
PLAYLIST: 00011.MPLS
********************

<–- BEGIN FORUMS PASTE –->

Total Video
Title Codec Length Movie Size Disc Size Bitrate Bitrate Main Audio Track Secondary Audio Track
––- ––– –––- ––––––– ––––––– –––- –––- ––––––––– ––––––––––-
00011.MPLS AVC 0:39:42 0 25 166 738 427 0,00 0,00 LPCM 2.0 4608Kbps (96kHz/24-bit)




DISC INFO:

Disc Title: YES_RELAYER
Disc Size: 25 166 738 427 bytes
Protection: AACS
BD-Java: Yes
BDInfo: 0.5.8

PLAYLIST REPORT:

Name: 00011.MPLS
Length: 0:39:42.380 (h:m:s.ms)
Size: 0 bytes
Total Bitrate: 0,00 Mbps

VIDEO:

Codec Bitrate Description
––- –––- –––––-
MPEG-4 AVC Video 0 kbps 1080p / 23,976 fps / 16:9 / High Profile 4.1

AUDIO:

Codec Language Bitrate Description
––- –––– –––- –––––-
LPCM Audio English 4608 kbps 2.0 / 96 kHz / 4608 kbps / 24-bit

FILES:

Name Time In Length Size Total Bitrate
–– –––- ––– –– ––––––-
00011.M2TS 0:00:00.000 0:39:42.380 0 0

CHAPTERS:

Number Time In Length Avg Video Rate Max 1-Sec Rate Max 1-Sec Time Max 5-Sec Rate Max 5-Sec Time Max 10Sec Rate Max 10Sec Time Avg Frame Size Max Frame Size Max Frame Time
––– –––- ––– ––––––– ––––––– ––––––– ––––––– ––––––– ––––––– ––––––– ––––––– ––––––– –––––––
1 0:00:00.000 0:21:08.267 0 kbps 0 kbps 00:00:00.000 0 kbps 00:00:00.000 0 kbps 00:00:00.000 0 bytes 0 bytes 00:00:00.000
2 0:21:08.267 0:18:34.113 0 kbps 0 kbps 00:00:00.000 0 kbps 00:00:00.000 0 kbps 00:00:00.000 0 bytes 0 bytes 00:00:00.000

STREAM DIAGNOSTICS:

File PID Type Codec Language Seconds Bitrate Bytes Packets
–– –- –– ––- –––– ––––––– ––––––– ––––––- ––-
00011.M2TS 4113 (0x1011) 0x1B AVC 0,042 0 0 0
00011.M2TS 4352 (0x1100) 0x80 LPCM eng (English) 0,042 0 0 0


<–– END FORUMS PASTE ––>

QUICK SUMMARY:

Disc Title: YES_RELAYER
Disc Size: 25 166 738 427 bytes
Protection: AACS
BD-Java: Yes
Playlist: 00011.MPLS
Size: 0 bytes
Length: 0:39:42.380
Total Bitrate: 0,00 Mbps
Video: MPEG-4 AVC Video / 0 kbps / 1080p / 23,976 fps / 16:9 / High Profile 4.1
Audio: English / LPCM Audio / 2.0 / 96 kHz / 4608 kbps / 24-bit


********************
PLAYLIST: 00001.MPLS
********************

<–- BEGIN FORUMS PASTE –->

Total Video
Title Codec Length Movie Size Disc Size Bitrate Bitrate Main Audio Track Secondary Audio Track
––- ––– –––- ––––––– ––––––– –––- –––- ––––––––– ––––––––––-
00001.MPLS AVC 0:00:30 0 25 166 738 427 0,00 0,00




DISC INFO:

Disc Title: YES_RELAYER
Disc Size: 25 166 738 427 bytes
Protection: AACS
BD-Java: Yes
BDInfo: 0.5.8

PLAYLIST REPORT:

Name: 00001.MPLS
Length: 0:00:30.029 (h:m:s.ms)
Size: 0 bytes
Total Bitrate: 0,00 Mbps

VIDEO:

Codec Bitrate Description
––- –––- –––––-
MPEG-4 AVC Video 0 kbps 1080p / 23,976 fps / 16:9 / High Profile 4.1

FILES:

Name Time In Length Size Total Bitrate
–– –––- ––– –– ––––––-
00002.M2TS 0:00:00.000 0:00:30.029 0 0

CHAPTERS:

Number Time In Length Avg Video Rate Max 1-Sec Rate Max 1-Sec Time Max 5-Sec Rate Max 5-Sec Time Max 10Sec Rate Max 10Sec Time Avg Frame Size Max Frame Size Max Frame Time
––– –––- ––– ––––––– ––––––– ––––––– ––––––– ––––––– ––––––– ––––––– ––––––– ––––––– –––––––
1 0:00:00.000 0:00:29.028 0 kbps 0 kbps 00:00:00.000 0 kbps 00:00:00.000 0 kbps 00:00:00.000 0 bytes 0 bytes 00:00:00.000
2 0:00:29.028 0:00:01.000 0 kbps 0 kbps 00:00:00.000 0 kbps 00:00:00.000 0 kbps 00:00:00.000 0 bytes 0 bytes 00:00:00.000

STREAM DIAGNOSTICS:

File PID Type Codec Language Seconds Bitrate Bytes Packets
–– –- –– ––- –––– ––––––– ––––––– ––––––- ––-
00002.M2TS 4113 (0x1011) 0x1B AVC 0 0 0 0


<–– END FORUMS PASTE ––>

QUICK SUMMARY:

Disc Title: YES_RELAYER
Disc Size: 25 166 738 427 bytes
Protection: AACS
BD-Java: Yes
Playlist: 00001.MPLS
Size: 0 bytes
Length: 0:00:30.029
Total Bitrate: 0,00 Mbps
Video: MPEG-4 AVC Video / 0 kbps / 1080p / 23,976 fps / 16:9 / High Profile 4.1


********************
PLAYLIST: 00002.MPLS
********************

<–- BEGIN FORUMS PASTE –->

Total Video
Title Codec Length Movie Size Disc Size Bitrate Bitrate Main Audio Track Secondary Audio Track
––- ––– –––- ––––––– ––––––– –––- –––- ––––––––– ––––––––––-
00002.MPLS AVC 0:00:30 0 25 166 738 427 0,00 0,00




DISC INFO:

Disc Title: YES_RELAYER
Disc Size: 25 166 738 427 bytes
Protection: AACS
BD-Java: Yes
BDInfo: 0.5.8

PLAYLIST REPORT:

Name: 00002.MPLS
Length: 0:00:30.029 (h:m:s.ms)
Size: 0 bytes
Total Bitrate: 0,00 Mbps

VIDEO:

Codec Bitrate Description
––- –––- –––––-
MPEG-4 AVC Video 0 kbps 1080p / 23,976 fps / 16:9 / High Profile 4.1

FILES:

Name Time In Length Size Total Bitrate
–– –––- ––– –– ––––––-
00003.M2TS 0:00:00.000 0:00:30.029 0 0

CHAPTERS:

Number Time In Length Avg Video Rate Max 1-Sec Rate Max 1-Sec Time Max 5-Sec Rate Max 5-Sec Time Max 10Sec Rate Max 10Sec Time Avg Frame Size Max Frame Size Max Frame Time
––– –––- ––– ––––––– ––––––– ––––––– ––––––– ––––––– ––––––– ––––––– ––––––– ––––––– –––––––
1 0:00:00.000 0:00:29.028 0 kbps 0 kbps 00:00:00.000 0 kbps 00:00:00.000 0 kbps 00:00:00.000 0 bytes 0 bytes 00:00:00.000
2 0:00:29.028 0:00:01.000 0 kbps 0 kbps 00:00:00.000 0 kbps 00:00:00.000 0 kbps 00:00:00.000 0 bytes 0 bytes 00:00:00.000

STREAM DIAGNOSTICS:

File PID Type Codec Language Seconds Bitrate Bytes Packets
–– –- –– ––- –––– ––––––– ––––––– ––––––- ––-
00003.M2TS 4113 (0x1011) 0x1B AVC 0 0 0 0


<–– END FORUMS PASTE ––>

QUICK SUMMARY:

Disc Title: YES_RELAYER
Disc Size: 25 166 738 427 bytes
Protection: AACS
BD-Java: Yes
Playlist: 00002.MPLS
Size: 0 bytes
Length: 0:00:30.029
Total Bitrate: 0,00 Mbps
Video: MPEG-4 AVC Video / 0 kbps / 1080p / 23,976 fps / 16:9 / High Profile 4.1


********************
PLAYLIST: 00003.MPLS
********************

<–- BEGIN FORUMS PASTE –->

Total Video
Title Codec Length Movie Size Disc Size Bitrate Bitrate Main Audio Track Secondary Audio Track
––- ––– –––- ––––––– ––––––– –––- –––- ––––––––– ––––––––––-
00003.MPLS AVC 0:00:30 0 25 166 738 427 0,00 0,00




DISC INFO:

Disc Title: YES_RELAYER
Disc Size: 25 166 738 427 bytes
Protection: AACS
BD-Java: Yes
BDInfo: 0.5.8

PLAYLIST REPORT:

Name: 00003.MPLS
Length: 0:00:30.029 (h:m:s.ms)
Size: 0 bytes
Total Bitrate: 0,00 Mbps

VIDEO:

Codec Bitrate Description
––- –––- –––––-
MPEG-4 AVC Video 0 kbps 1080p / 23,976 fps / 16:9 / High Profile 4.1

FILES:

Name Time In Length Size Total Bitrate
–– –––- ––– –– ––––––-
00004.M2TS 0:00:00.000 0:00:30.029 0 0

CHAPTERS:

Number Time In Length Avg Video Rate Max 1-Sec Rate Max 1-Sec Time Max 5-Sec Rate Max 5-Sec Time Max 10Sec Rate Max 10Sec Time Avg Frame Size Max Frame Size Max Frame Time
––– –––- ––– ––––––– ––––––– ––––––– ––––––– ––––––– ––––––– ––––––– ––––––– ––––––– –––––––
1 0:00:00.000 0:00:29.028 0 kbps 0 kbps 00:00:00.000 0 kbps 00:00:00.000 0 kbps 00:00:00.000 0 bytes 0 bytes 00:00:00.000
2 0:00:29.028 0:00:01.000 0 kbps 0 kbps 00:00:00.000 0 kbps 00:00:00.000 0 kbps 00:00:00.000 0 bytes 0 bytes 00:00:00.000

STREAM DIAGNOSTICS:

File PID Type Codec Language Seconds Bitrate Bytes Packets
–– –- –– ––- –––– ––––––– ––––––– ––––––- ––-
00004.M2TS 4113 (0x1011) 0x1B AVC 0 0 0 0


<–– END FORUMS PASTE ––>

QUICK SUMMARY:

Disc Title: YES_RELAYER
Disc Size: 25 166 738 427 bytes
Protection: AACS
BD-Java: Yes
Playlist: 00003.MPLS
Size: 0 bytes
Length: 0:00:30.029
Total Bitrate: 0,00 Mbps
Video: MPEG-4 AVC Video / 0 kbps / 1080p / 23,976 fps / 16:9 / High Profile 4.1


********************
PLAYLIST: 00000.MPLS
********************

<–- BEGIN FORUMS PASTE –->

Total Video
Title Codec Length Movie Size Disc Size Bitrate Bitrate Main Audio Track Secondary Audio Track
––- ––– –––- ––––––– ––––––– –––- –––- ––––––––– ––––––––––-
00000.MPLS AVC 0:00:22 0 25 166 738 427 0,00 0,00




DISC INFO:

Disc Title: YES_RELAYER
Disc Size: 25 166 738 427 bytes
Protection: AACS
BD-Java: Yes
BDInfo: 0.5.8

PLAYLIST REPORT:

Name: 00000.MPLS
Length: 0:00:22.022 (h:m:s.ms)
Size: 0 bytes
Total Bitrate: 0,00 Mbps

VIDEO:

Codec Bitrate Description
––- –––- –––––-
MPEG-4 AVC Video 0 kbps 1080p / 23,976 fps / 16:9 / High Profile 4.1

FILES:

Name Time In Length Size Total Bitrate
–– –––- ––– –– ––––––-
00000.M2TS 0:00:00.000 0:00:22.022 0 0

CHAPTERS:

Number Time In Length Avg Video Rate Max 1-Sec Rate Max 1-Sec Time Max 5-Sec Rate Max 5-Sec Time Max 10Sec Rate Max 10Sec Time Avg Frame Size Max Frame Size Max Frame Time
––– –––- ––– ––––––– ––––––– ––––––– ––––––– ––––––– ––––––– ––––––– ––––––– ––––––– –––––––
1 0:00:00.000 0:00:22.022 0 kbps 0 kbps 00:00:00.000 0 kbps 00:00:00.000 0 kbps 00:00:00.000 0 bytes 0 bytes 00:00:00.000

STREAM DIAGNOSTICS:

File PID Type Codec Language Seconds Bitrate Bytes Packets
–– –- –– ––- –––– ––––––– ––––––– ––––––- ––-
00000.M2TS 4113 (0x1011) 0x1B AVC 0 0 0 0


<–– END FORUMS PASTE ––>

QUICK SUMMARY:

Disc Title: YES_RELAYER
Disc Size: 25 166 738 427 bytes
Protection: AACS
BD-Java: Yes
Playlist: 00000.MPLS
Size: 0 bytes
Length: 0:00:22.022
Total Bitrate: 0,00 Mbps
Video: MPEG-4 AVC Video / 0 kbps / 1080p / 23,976 fps / 16:9 / High Profile 4.1


on Full Blu-Ray only

Analyzed: Yes / Relayer (2014 Multichannel Mixes by Steven Wilson)
––––––––––––––––––––––––––––––––––––––––

DR Peak RMS Duration Track
––––––––––––––––––––––––––––––––––––––––
DR13 -0.10 dB -19.78 dB 22:00 01-The Gates Of Delirium
DR14 -0.10 dB -21.83 dB 9:30 02-Sound Chaser
DR12 -0.10 dB -20.32 dB 9:12 03-To Be Over
––––––––––––––––––––––––––––––––––––––––

Number of tracks: 3
Official DR value: DR13

Samplerate: 96000 Hz
Channels: 6
Bits per sample: 24
Bitrate: 13824 kbps
Codec: PCM
================================================================================

NTSC, all regions, LPCM playable in all Blu-Ray players & Blu-Ray drives.
Also includes the same Multichannel master encoded in DTS-HD Master Audio 5.1 24bit/96kHz.



2014 Stereo Mixes (24/96)
01 - The Gates Of Delirium
02 - Sound Chaser
03 - To Be Over

Analyzed: YES / Relayer (2014 Stereo Mixes by Steven Wilson)
––––––––––––––––––––––––––––––––––––––––

DR Peak RMS Duration Track
––––––––––––––––––––––––––––––––––––––––
DR11 -0.10 dB -14.12 dB 22:00 01-The Gates Of Delirium
DR11 -0.10 dB -14.80 dB 9:28 02-Sound Chaser
DR10 -0.10 dB -13.50 dB 9:14 03-To Be Over
––––––––––––––––––––––––––––––––––––––––

Number of tracks: 3
Official DR value: DR11

Samplerate: 96000 Hz
Channels: 2
Bits per sample: 24
Bitrate: 2761 kbps
Codec: FLAC
================================================================================



Original Stereo Mix (Flat Trasfer 24-192)
01 - The Gates Of Delirium
02 - Sound Chaser
03 - To Be Over

Analyzed: YES / Relayer (Original Stereo Mixes - Flat Transfer from Original Master)
––––––––––––––––––––––––––––––––––––––––

DR Peak RMS Duration Track
––––––––––––––––––––––––––––––––––––––––
DR11 -2.99 dB -17.12 dB 21:55 01-The Gates Of Delirium
DR11 -2.21 dB -16.77 dB 9:27 02-Sound Chaser
DR11 -2.08 dB -17.01 dB 9:15 03-To Be Over
––––––––––––––––––––––––––––––––––––––––

Number of tracks: 3
Official DR value: DR11

Samplerate: 192000 Hz
Channels: 2
Bits per sample: 24
Bitrate: 5298 kbps
Codec: FLAC
================================================================================



The Alternate Album (24-96)
01 - The Gates Of Delirium (Studio Run Through)
02 - Sound Chaser (Studio Run Through)
03 - To Be Over (Studio Run Through)

Analyzed: YES / Relayer (Alternate Album)
––––––––––––––––––––––––––––––––––––––––

DR Peak RMS Duration Track
––––––––––––––––––––––––––––––––––––––––
DR9 -4.10 dB -16.18 dB 22:33 01-The Gates Of Delirium (Studio Run Through)
DR11 -4.27 dB -19.05 dB 9:35 02-Sound Chaser (Studio Run Through)
DR11 -4.24 dB -18.95 dB 8:38 03-To Be Over (Studio Run Through)
––––––––––––––––––––––––––––––––––––––––

Number of tracks: 3
Official DR value: DR10

Samplerate: 96000 Hz
Channels: 2
Bits per sample: 24
Bitrate: 2480 kbps
Codec: FLAC
================================================================================



Additional Material (24-96)
01 - Soon (Single Edit)
02 - Sound Chaser (Single Edit)
03 - The Gates Of Delirium (Studio Run Through)
04 - Sound Chaser (Live from Cobo Hall 1976) [Blu-Ray Exclusive]
05 - Sound Chaser (Demo) [Blu-Ray Exclusive]

Analyzed: YES / Relayer (Additional Material)
––––––––––––––––––––––––––––––––––––––––

DR Peak RMS Duration Track
––––––––––––––––––––––––––––––––––––––––
DR10 -3.91 dB -18.43 dB 4:11 01-Soon (Single Edit)
DR10 -5.01 dB -16.92 dB 3:10 02-Sound Chaser (Single Edit)
DR12 -2.57 dB -17.29 dB 21:17 03-The Gates Of Delirium (Studio Run Through)
DR12 -3.45 dB -19.45 dB 11:17 04-Sound Chaser (Live from Cobo Hall 1976) [Blu-Ray Exclusive]
DR14 -2.15 dB -20.04 dB 8:05 05-Sound Chaser (Demo) [Blu-Ray Exclusive]
––––––––––––––––––––––––––––––––––––––––

Number of tracks: 5
Official DR value: DR11

Samplerate: 96000 Hz
Channels: 2
Bits per sample: 24
Bitrate: 2637 kbps
Codec: FLAC
================================================================================



Archived Master (24-96)
01 - The Gates Of Delirium
02 - Sound Chaser
03 - To Be Over

Analyzed: YES / Relayer (Archived Master)
––––––––––––––––––––––––––––––––––––––––

DR Peak RMS Duration Track
––––––––––––––––––––––––––––––––––––––––
DR12 -2.34 dB -17.70 dB 21:51 01-The Gates Of Delirium
DR11 -2.14 dB -17.44 dB 9:28 02-Sound Chaser
DR11 -2.26 dB -17.31 dB 9:08 03-To Be Over
––––––––––––––––––––––––––––––––––––––––

Number of tracks: 3
Official DR value: DR11

Samplerate: 96000 Hz
Channels: 2
Bits per sample: 24
Bitrate: 2911 kbps
Codec: FLAC
================================================================================



2014 Stereo Instrumental Mixes (24-96)
01 - The Gates Of Delirium
02 - Sound Chaser
03 - To Be Over

Analyzed: YES / Relayer (Stereo Instrumental Mixes by Steven Wilson)
––––––––––––––––––––––––––––––––––––––––

DR Peak RMS Duration Track
––––––––––––––––––––––––––––––––––––––––
DR11 -0.10 dB -14.34 dB 22:00 01-The Gates Of Delirium
DR11 -0.10 dB -15.06 dB 9:30 02-Sound Chaser
DR10 -0.10 dB -14.11 dB 9:13 03-To Be Over
––––––––––––––––––––––––––––––––––––––––

Number of tracks: 3
Official DR value: DR11

Samplerate: 96000 Hz
Channels: 2
Bits per sample: 24
Bitrate: 2725 kbps
Codec: FLAC
================================================================================



Needle-Drop, UK Vinyl Transfer A1/B1 (24-96)
01 - The Gates Of Delirium
02 - Sound Chaser
03 - To Be Over

Analyzed: YES / Relayer (Needle-Drop, UK Vinyl Transfer)
––––––––––––––––––––––––––––––––––––––––

DR Peak RMS Duration Track
––––––––––––––––––––––––––––––––––––––––
DR11 -1.94 dB -15.95 dB 21:52 01-The Gates Of Delirium
DR11 -2.78 dB -16.76 dB 9:29 02-Sound Chaser
DR10 -1.92 dB -16.94 dB 9:11 03-To Be Over
––––––––––––––––––––––––––––––––––––––––

Number of tracks: 3
Official DR value: DR11

Samplerate: 96000 Hz
Channels: 2
Bits per sample: 24
Bitrate: 2767 kbps
Codec: FLAC
================================================================================



Needle-Drop, US Promo Album, A1/B1 US Vinyl (24-96)
01 - The Gates Of Delirium (Part 1, 2 & 3)
02 - Sound Chaser (Part 1 & 2)

Analyzed: YES / Relayer (Needle-Drop, US Promo Album, A1/B1 US Vinyl)
––––––––––––––––––––––––––––––––––––––––

DR Peak RMS Duration Track
––––––––––––––––––––––––––––––––––––––––
DR11 -2.10 dB -16.21 dB 21:08 01-The Gates Of Delirium (Part 1, 2 & 3)
DR11 -1.95 dB -16.90 dB 18:34 02-Sound Chaser (Part 1 & 2)
––––––––––––––––––––––––––––––––––––––––

Number of tracks: 2
Official DR value: DR11

Samplerate: 96000 Hz
Channels: 2
Bits per sample: 24
Bitrate: 2807 kbps
Codec: FLAC
================================================================================


Original Album Produced by Yes & Eddie Offord.
Vinyl Transfers by John Kimber.
All New Mixes by Steven Wilson.

Yes - Relayer (1974/2014) [High Fidelity Pure Audio Blu-Ray Disc+FLAC]
Yes - Relayer (1974/2014) [High Fidelity Pure Audio Blu-Ray Disc+FLAC]
Yes - Relayer (1974/2014) [High Fidelity Pure Audio Blu-Ray Disc+FLAC]

Blu-Ray uncompressed size = 23,44 GB
ALL FLAC files were fully tagged.