Tags
Language
Tags
June 2024
Su Mo Tu We Th Fr Sa
26 27 28 29 30 31 1
2 3 4 5 6 7 8
9 10 11 12 13 14 15
16 17 18 19 20 21 22
23 24 25 26 27 28 29
30 1 2 3 4 5 6

Youn Sun Nah - Lento (2013/2014) [Official Digital Download 24-bit/96kHz]

Posted By: HDV
Youn Sun Nah - Lento (2013/2014) [Official Digital Download 24-bit/96kHz]

Youn Sun Nah - Lento (2013/2014)
FLAC (tracks) 24-bit/96 kHz | Time - 45:53 minutes | 1,02 GB
Studio Master, Official Digital Download | Artwork: Digital booklet

Often compared to Diana Krall and Norah Jones, award-winning Korean singer Youn Sun Nah displays her unique qualities on Lento as she blends different cultural and musical sources in a respectful yet unconventional manner. Besides jazz and related styles, she draws on chanson, pop and folk music. In addition to original compositions by her and her band members, there is a cover of a Nine Inch Nails song ("Hurt") and "Ghost Riders in the Sky", a classic country song made famous by Johnny Cash. And, for the first time, Nah explores European classical music: Alexander Scriabin’s 5 Preludes, Op. 16 was a source of inspiration for the album’s title and it also sets up an intimate, atmospheric and harmonious musical world.

With her universal yet individual style Youn Sun Nah gives traditional vocal jazz a new flavour, while unconventionally and effortlessly exploring new exciting spaces. She is one of the most outstanding representatives of vocal jazz that includes the whole spectrum of contemporary music. Her new album “Lento” gives an explanation by combining Youn Sun Nah’s unique qualities. One of them is the blending of different cultural and musical sources, in a respectful yet unconventional manner. Besides jazz and related styles, she draws on chanson, pop and folk music, and in addition to compositions by herself and her band members, there is the extremely light version of the Korean folk song “Arirang” as well as “Hurt” by the alternative rock band Nine Inch Nails, and Stan Jones’ “Ghost Riders In The Sky”, a classic country song made famous by Johnny Cash. For the first time Nah also calls upon European classical music: Alexander Skrjabin’s Prelude op. 16 Nr. 4 in E minor with its tempo indication ”Lento” was a source of inspiration for the album’s title, and it also sets up an intimate, atmospheric and harmonious musical world. Youn Sun Nah unfolds her expressive power especially in the peaceful and slow-paced moments – on the fragile chanson “Full Circle”, with heartbreaking grievance on “Lament” or artistic unison singing on “Momento Magico”.

Tracklist:

01 - Lento
02 - Lament
03 - Hurt
04 - Empty Dream
05 - Momento Magico
06 - Soundless Bye
07 - Full Circle
08 - Ghost Riders In The Sky
09 - Waiting
10 - Arirang
11 - New Dawn

Produced by Youn Sun Nah & Axel Matignon.
Recorded on October 31 - November 2, 2012 at Nilento Studio, Gothenburg, Sweden
Mixed on December 4-7, 2012 & Mastered on December 19, 2012 by Lars Nilsson.

Musicians:
Youn Sun Nah - vocals
Ulf Wakenius - guitars
Lars Danielsson - bass & cello
Vincent Peirani - accordion & accordina
Xavier Desandre-Navarre - percussion

Analyzed: Youn Sun Nah / Lento
––––––––––––––––––––––––––––––––––––––––

DR Peak RMS Duration Track
––––––––––––––––––––––––––––––––––––––––
DR11 -0.54 dB -15.20 dB 3:05 01-Lento
DR7 -0.54 dB -9.95 dB 3:40 02-Lament
DR10 -0.54 dB -15.40 dB 5:22 03-Hurt
DR12 -0.54 dB -16.03 dB 4:21 04-Empty Dream
DR7 -0.54 dB -9.85 dB 5:32 05-Momento Magico
DR11 -1.39 dB -15.85 dB 3:44 06-Soundless Bye
DR11 -0.54 dB -13.81 dB 3:36 07-Full Circle
DR8 -0.54 dB -11.40 dB 4:58 08-Ghost Riders In The Sky
DR12 -0.54 dB -15.27 dB 3:30 09-Waiting
DR11 -0.54 dB -15.36 dB 4:25 10-Arirang
DR11 -0.88 dB -15.17 dB 3:41 11-New Dawn
––––––––––––––––––––––––––––––––––––––––

Number of tracks: 11
Official DR value: DR10

Samplerate: 96000 Hz
Channels: 2
Bits per sample: 24
Bitrate: 2746 kbps
Codec: FLAC
================================================================================


Thanks to the Original customer!