Tags
Language
Tags
June 2024
Su Mo Tu We Th Fr Sa
26 27 28 29 30 31 1
2 3 4 5 6 7 8
9 10 11 12 13 14 15
16 17 18 19 20 21 22
23 24 25 26 27 28 29
30 1 2 3 4 5 6

Youn Sun Nah - She Moves On (2017) [Official Digital Download 24-bit/96kHz]

Posted By: HDV
Youn Sun Nah - She Moves On (2017) [Official Digital Download 24-bit/96kHz]

Youn Sun Nah - She Moves On (2017)
FLAC (tracks) 24-bit/96 kHz | Time - 50:44 minutes | 1,04 GB
Studio Master, Official Digital Download | Artwork: Digital booklet

Korean singer Youn Sun Nah is one of the most brilliantly successful artists of our time in jazz and the music related to it. Four years have passed since her last highly successful opus, “Lento”, and now the extremely popular Korean, Parisbased vocal star is back, with a new album. It is a completely fresh project, recorded with a top New York band. Great intimacy, poetry and charm, pure-toned and emotional honesty - you can expect all of that from Youn Sun Nah.

On a stunning gig in London last September, the South Korean singer Youn Sun Nah showed how seamlessly she could move between impressionistic high drama, abstract improv, or a folk artist’s candid simplicity. This New York set takes her closer to the mainstream with a band including keyboardist-producer Jamie Saft and the inventive Marc Ribot alongside her regular guitarist Ulf Wakenius. She delectably catches the dreamy poetry of Joni Mitchell’s The Dawntreader and the tenderness of Fools Rush In, shakes long notes with a flute-like delicacy on Black Is the Colour of My True Love’s Hair, lifts Jimi Hendrix’s Drifting to a free furore with the guitarists. But the shuffle-strumming Paul Simon title track doesn’t really take off despite the singer’s distantly Peyroux-like airiness, and the generic soul-ballad Too Late (written by Saft and his songwriter wife Vanessa) could use a little of her improv savagery to puncture its faintly humdrum yearnings. You couldn’t miss Youn Sun Nah’s musicality in any setting, but this is rather a tame one by her standards.

Tracklist:

01 - Traveller
02 - Teach the Gifted Children
03 - Too Late
04 - She Moves On
05 - No Other Name
06 - The Dawntreader
07 - Drifting
08 - Black Is the Color of My True Love's Hair
09 - A Sailor's Life
10 - Fools Rush In
11 - Evening Star

Produced & Arranged by Jamie Saft.
Recorded by Vin Cin at Sear Sound, NY in December 2016.
Mixed by Vin Cin and Jamie Saft at Sear Sound, NY in January 2017.
Mastered by Scott Hull at Masterdisk, NY in February 2017.

Musicians:
Youn Sun Nah - vocals, kalimba
Jamie Saft - piano, keyboards
Brad Jones - acoustic bass
Dan Rieser - drums
Marc Ribot - electric & acoustic guitars on "2,4,5,7,11"

Special Guests on "3":
Maxim Moston - Violin, String Arrangement
Antoine Silverman - Violin
Hiroko Taguchi - Viola
Anja Wood - Violoncello

Analyzed: Youn Sun Nah / She Moves On
––––––––––––––––––––––––––––––––––––––––

DR Peak RMS Duration Track
––––––––––––––––––––––––––––––––––––––––
DR9 -1.05 dB -13.37 dB 3:44 01-Traveller
DR9 -1.05 dB -12.52 dB 4:13 02-Teach the Gifted Children
DR10 -1.27 dB -12.77 dB 5:04 03-Too Late
DR9 -1.05 dB -11.66 dB 4:45 04-She Moves On
DR12 -1.58 dB -17.29 dB 2:46 05-No Other Name
DR10 -1.05 dB -14.22 dB 5:30 06-The Dawntreader
DR9 -1.05 dB -11.64 dB 4:39 07-Drifting
DR11 -1.44 dB -17.56 dB 4:15 08-Black Is the Color of My True Love's Hair
DR10 -1.04 dB -14.64 dB 8:43 09-A Sailor's Life
DR11 -1.30 dB -15.13 dB 4:05 10-Fools Rush In
DR10 -1.37 dB -12.88 dB 3:01 11-Evening Star
––––––––––––––––––––––––––––––––––––––––

Number of tracks: 11
Official DR value: DR10

Samplerate: 96000 Hz
Channels: 2
Bits per sample: 24
Bitrate: 2870 kbps
Codec: FLAC
================================================================================


Thanks to the Original customer!