Tags
Language
Tags
June 2024
Su Mo Tu We Th Fr Sa
26 27 28 29 30 31 1
2 3 4 5 6 7 8
9 10 11 12 13 14 15
16 17 18 19 20 21 22
23 24 25 26 27 28 29
30 1 2 3 4 5 6

Youn Sun Nah - Voyage (2009/2014) [Official Digital Download 24/88]

Posted By: HDV
Youn Sun Nah - Voyage (2009/2014) [Official Digital Download 24/88]

Youn Sun Nah - Voyage (2009/2014)
FLAC (tracks) 24-bit/88,2 kHz | Time - 55:26 minutes | 1,01 GB
Studio Master, Official Digital Download | Artwork: Digital booklet

In our time and age, a jazz singer from Korea may still seem like an exotic concept. But anyone who knows how much effort Asian countries invest in education and promotion also knows about the growing circle of jazz fans in the region. So with notable exceptions it’s astounding that there aren’t more artists from Korea or Japan whose names are on everyone’s lips. However, Youn Sun Nah could change all that, and as the first Korean artist exclusively under contract with ACT, anyone listening to her debut album "Voyage" will understand why.

The exquisite quartet displays a distinctly Nordic element on Voyage and was also a great inspiration for Youn Sun Nah. She recalls: “With the band in Paris, somehow it was always about experimenting. We were all quite new to the business when we started working. With Ulf, Lars, Mathias and Xavier, however, I felt relaxed and secure from the first moment on. You don’t need to prove anything to them and that’s why you are even more daring."

Voyage is a journey into the past and at the same time a promise for the future. It’s an impressive signature of one of the most exceptional singers of our time.

Tracklist:

01 - Dancing With You
02 - The Linden
03 - Calypso Blues
04 - My Bye
05 - Jockey Full Of Bourbon
06 - Voyage
07 - Please, Don't Be Sad
08 - Shenandoah
09 - Come, Come
10 - Frevo
11 - Inner Prayer
12 - India Song

Produced by Lars Danielsson. Recording, Mixing and Mastering Engineer: Lars Nilsson
Recorded June 2-4, 2008 at Nilento Studio in Gothenburg, Sweden.

Musicians:
Youn Sun Nah - vocals
Ulf Wakenius - guitar
Lars Danielsson - acoustic bass, cello, melodica
Xavier Desandre-Navarre - percussion
Mathias Eick - trumpet

Analyzed: Youn Sun Nah / Voyage
––––––––––––––––––––––––––––––––––––––––

DR Peak RMS Duration Track
––––––––––––––––––––––––––––––––––––––––
DR12 -0.47 dB -16.00 dB 4:46 01-Dancing With You
DR10 -0.37 dB -14.37 dB 5:02 02-The Linden
DR11 -2.01 dB -14.68 dB 4:07 03-Calypso Blues
DR11 -1.73 dB -16.41 dB 4:27 04-My Bye
DR10 -2.12 dB -14.17 dB 3:43 05-Jockey Full Of Bourbon
DR13 -1.15 dB -17.77 dB 6:02 06-Voyage
DR11 -0.11 dB -13.42 dB 3:47 07-Please, Don't Be Sad
DR11 -1.73 dB -16.74 dB 4:34 08-Shenandoah
DR10 -4.17 dB -17.98 dB 3:32 09-Come, Come
DR9 -0.12 dB -12.50 dB 5:19 10-Frevo
DR10 -1.30 dB -15.87 dB 5:07 11-Inner Prayer
DR12 -1.55 dB -16.57 dB 5:00 12-India Song
––––––––––––––––––––––––––––––––––––––––

Number of tracks: 12
Official DR value: DR11

Samplerate: 88200 Hz
Channels: 2
Bits per sample: 24
Bitrate: 2282 kbps
Codec: FLAC
================================================================================


Thanks to the Original customer!