101 Strings Orchestra - The Soul of Spain, France, Italy, USA, Greece, Poland, Gypsies, Japan (2019) Official Digital Download

Posted By: Pisulik
101 Strings Orchestra - The Soul of Spain, France, Italy, USA, Greece, Poland, Gypsies, Japan (2019) Official Digital Download

101 Strings Orchestra - Soul of Music USA: A Program of the Best Known American Folk Music (Remastered from the Original Somerset Tapes) (1962/2019)
FLAC (tracks) 24-bit/96 kHz | Time - 33:08 minutes | 653 MB
Studio Master, Official Digital Download | Artwork: Front cover


Tracklist CD1:

01. Medley: Red River Valley / Round Her Neck She Wore a Yellow Ribbon / Streets Of Laredo / Bury Me Not on the Lone Prairie
02. John Henry
03. 101 Strings Orchestra & The Alshire Singers - Cornbelt Medley: Turkey in the Straw / Arkansas Traveller / Hoedown
04. Spiritual Medley: Swing Low Sweet Chariot / Joshua Fit de Battle of Jericho, Nobody Knows the Trouble I've Seen
05. Lonesome Railroad Blues
06. The Birth of the Blues

foobar2000 1.3.7 / Dynamic Range Meter 1.1.1
log date: 2019-12-02 05:05:42

––––––––––––––––––––––––––––––––––––––––
Analyzed: 101 Strings Orchestra / Soul of Music USA: A Program of the Best Known American Folk Music (Remastered from the Original Somerset Tapes)
––––––––––––––––––––––––––––––––––––––––

DR Peak RMS Duration Track
––––––––––––––––––––––––––––––––––––––––
DR11 -0.20 dB -15.59 dB 9:00 01-Medley: Red River Valley / Round Her Neck She Wore a Yellow Ribbon / Streets Of Laredo / Bury Me Not on the Lone Prairie
DR13 -0.30 dB -16.56 dB 4:24 02-John Henry
DR11 -0.50 dB -13.63 dB 4:24 03-Cornbelt Medley: Turkey in the Straw / Arkansas Traveller / Hoedown
DR11 -0.46 dB -16.32 dB 7:28 04-Spiritual Medley: Swing Low Sweet Chariot / Joshua Fit de Battle of Jericho, Nobody Knows the Trouble I've Seen
DR11 -0.30 dB -14.29 dB 4:36 05-Lonesome Railroad Blues
DR10 -1.46 dB -15.37 dB 3:19 06-The Birth of the Blues
––––––––––––––––––––––––––––––––––––––––

Number of tracks: 6
Official DR value: DR11

Samplerate: 96000 Hz
Channels: 2
Bits per sample: 24
Bitrate: 2809 kbps
Codec: FLAC
================================================================================


101 Strings Orchestra - The Soul of Spain, France, Italy, USA, Greece, Poland, Gypsies, Japan (2019) Official Digital Download

101 Strings Orchestra - The Soul of Greece (Remastered from the Original Alshire Tapes) (1966/2019)
FLAC (tracks) 24-bit/96 kHz | Time - 35:05 minutes | 706 MB
Studio Master, Official Digital Download | Artwork: Front cover


Tracklist CD2:

01. Athens by Night
02. A Bed for Two
03. Hassaposerviko
04. Mykonos Sunset
05. Never On Sunday
06. Aharisti
07. Theme from Zorba the Greek
08. Daybreak
09. Hellena
10. Sorrow in Every Port
11. Departure

foobar2000 1.3.7 / Dynamic Range Meter 1.1.1
log date: 2019-12-02 05:48:43

––––––––––––––––––––––––––––––––––––––––
Analyzed: 101 Strings Orchestra / The Soul of Greece (Remastered from the Original Alshire Tapes)
––––––––––––––––––––––––––––––––––––––––

DR Peak RMS Duration Track
––––––––––––––––––––––––––––––––––––––––
DR11 -0.50 dB -14.93 dB 3:18 01-Athens by Night
DR12 -0.50 dB -16.05 dB 3:08 02-A Bed for Two
DR12 -0.50 dB -16.17 dB 2:42 03-Hassaposerviko
DR11 -0.50 dB -14.66 dB 3:08 04-Mykonos Sunset
DR10 -0.50 dB -12.77 dB 3:24 05-Never On Sunday
DR13 -1.88 dB -17.82 dB 3:01 06-Aharisti
DR12 -0.51 dB -15.24 dB 4:08 07-Theme from Zorba the Greek
DR11 -0.50 dB -15.49 dB 2:59 08-Daybreak
DR11 -0.50 dB -15.76 dB 1:32 09-Hellena
DR11 -2.29 dB -15.72 dB 3:38 10-Sorrow in Every Port
DR12 -0.50 dB -16.09 dB 4:11 11-Departure
––––––––––––––––––––––––––––––––––––––––

Number of tracks: 11
Official DR value: DR11

Samplerate: 96000 Hz
Channels: 2
Bits per sample: 24
Bitrate: 2738 kbps
Codec: FLAC
================================================================================


101 Strings Orchestra - The Soul of Spain, France, Italy, USA, Greece, Poland, Gypsies, Japan (2019) Official Digital Download

101 Strings Orchestra - The Soul of Poland (Remastered from the Original Alshire Tapes) (1966/2019)
FLAC (tracks) 24-bit/96 kHz | Time - 38:51 minutes | 791 MB
Studio Master, Official Digital Download | Artwork: Front cover


Tracklist CD3:

01. Polish National Anthem
02. Welcome May Dawn / The Uhlan and the Girl
03. White Roses Are Blooming
04. Hunting Song / To Wawel
05. My Little Quail / On a Monday Morning / Polita
06. How Beautiful Is Our Poland
07. Highland Song / Near the Wood / How Charming
08. We Drift Further Apart
09. Our Sons Have Died for Poland
10. I'm from Krakow
11. Chopin's Reverie (From Preludes, Op. 28, No. 7)
12. Chopin's Polonaise: Anthem (From Polonaise No. 3, Op. 40/1)

foobar2000 1.3.7 / Dynamic Range Meter 1.1.1
log date: 2019-12-02 05:59:50

––––––––––––––––––––––––––––––––––––––––
Analyzed: 101 Strings Orchestra / The Soul of Poland (Remastered from the Original Alshire Tapes)
––––––––––––––––––––––––––––––––––––––––

DR Peak RMS Duration Track
––––––––––––––––––––––––––––––––––––––––
DR10 -0.50 dB -13.05 dB 2:58 01-Polish National Anthem
DR10 -0.16 dB -14.70 dB 3:26 02-Welcome May Dawn / The Uhlan and the Girl
DR11 -0.50 dB -14.83 dB 4:14 03-White Roses Are Blooming
DR11 -0.50 dB -16.05 dB 3:47 04-Hunting Song / To Wawel
DR11 -0.50 dB -15.60 dB 3:06 05-My Little Quail / On a Monday Morning / Polita
DR9 -0.50 dB -14.06 dB 2:48 06-How Beautiful Is Our Poland
DR10 -0.50 dB -14.88 dB 5:16 07-Highland Song / Near the Wood / How Charming
DR10 -0.50 dB -15.93 dB 3:09 08-We Drift Further Apart
DR11 -0.50 dB -15.87 dB 3:05 09-Our Sons Have Died for Poland
DR11 -0.50 dB -14.05 dB 1:43 10-I'm from Krakow
DR10 -0.19 dB -16.13 dB 2:02 11-Chopin's Reverie (From Preludes, Op. 28, No. 7)
DR11 -0.50 dB -14.91 dB 3:21 12-Chopin's Polonaise: Anthem (From Polonaise No. 3, Op. 40/1)
––––––––––––––––––––––––––––––––––––––––

Number of tracks: 12
Official DR value: DR10

Samplerate: 96000 Hz
Channels: 2
Bits per sample: 24
Bitrate: 2545 kbps
Codec: FLAC
================================================================================


101 Strings Orchestra - The Soul of Spain, France, Italy, USA, Greece, Poland, Gypsies, Japan (2019) Official Digital Download

101 Strings Orchestra - Soul of the Gypsies (Remastered from the Original Alshire Tapes) (1966/2019)
FLAC (tracks) 24-bit/96 kHz | Time - 32:28 minutes | 653 MB
Studio Master, Official Digital Download | Artwork: Front cover


Tracklist CD4:

01. Dark Eyes
02. Slavonic Dances
03. Two Guitars
04. Hungarian Dance No. 6 in D Major
05. Golden Earrings
06. Czardas
07. Gypsy Songs, Op. 55: No. 4, Songs My Mother Taught Me

foobar2000 1.3.7 / Dynamic Range Meter 1.1.1
log date: 2019-12-02 06:12:44

––––––––––––––––––––––––––––––––––––––––
Analyzed: 101 Strings Orchestra / Soul of the Gypsies (Remastered from the Original Alshire Tapes)
––––––––––––––––––––––––––––––––––––––––

DR Peak RMS Duration Track
––––––––––––––––––––––––––––––––––––––––
DR11 -0.50 dB -15.68 dB 5:14 01-Dark Eyes
DR12 -0.30 dB -16.70 dB 4:11 02-Slavonic Dances
DR11 -0.50 dB -15.02 dB 5:56 03-Two Guitars
DR12 -0.30 dB -16.94 dB 4:15 04-Hungarian Dance No. 6 in D Major
DR11 -0.30 dB -15.72 dB 4:51 05-Golden Earrings
DR12 -0.30 dB -16.86 dB 4:26 06-Czardas
DR11 -0.30 dB -14.87 dB 3:37 07-Gypsy Songs, Op. 55: No. 4, Songs My Mother Taught Me
––––––––––––––––––––––––––––––––––––––––

Number of tracks: 7
Official DR value: DR11

Samplerate: 96000 Hz
Channels: 2
Bits per sample: 24
Bitrate: 2707 kbps
Codec: FLAC
================================================================================


101 Strings Orchestra - The Soul of Spain, France, Italy, USA, Greece, Poland, Gypsies, Japan (2019) Official Digital Download

101 Strings Orchestra - Songs of the Seasons in Japan (Remastered from the Original Alshire Tapes) (1966/2019)
FLAC (tracks) 24-bit/96 kHz | Time - 33:26 minutes | 657 MB
Studio Master, Official Digital Download | Artwork: Front cover


Tracklist CD5:

01. Koi-Nobori
02. Oshogatsu-Yuki
03. Mura Matsuri
04. Oboro Zukiyo
05. Aka Tombo
06. Fuyu No Yoru
07. Fuyu Geshiki
08. Sato No Aki
09. Hana
10. Sakura, Sakura
11. Momiji
12. Umi

foobar2000 1.3.7 / Dynamic Range Meter 1.1.1
log date: 2019-12-02 06:27:57

––––––––––––––––––––––––––––––––––––––––
Analyzed: 101 Strings Orchestra / Songs of the Seasons in Japan (Remastered from the Original Alshire Tapes)
––––––––––––––––––––––––––––––––––––––––

DR Peak RMS Duration Track
––––––––––––––––––––––––––––––––––––––––
DR11 -0.30 dB -15.73 dB 2:28 01-Koi-Nobori
DR11 -1.87 dB -17.76 dB 2:37 02-Oshogatsu-Yuki
DR12 -0.67 dB -17.37 dB 3:26 03-Mura Matsuri
DR10 -3.77 dB -18.93 dB 1:43 04-Oboro Zukiyo
DR11 -0.66 dB -16.86 dB 2:46 05-Aka Tombo
DR11 -0.30 dB -17.17 dB 4:00 06-Fuyu No Yoru
DR10 -2.49 dB -17.51 dB 2:13 07-Fuyu Geshiki
DR11 -0.94 dB -16.16 dB 3:09 08-Sato No Aki
DR11 -3.24 dB -18.28 dB 2:31 09-Hana
DR11 -1.74 dB -17.43 dB 2:35 10-Sakura, Sakura
DR11 -3.50 dB -19.39 dB 3:10 11-Momiji
DR12 -3.26 dB -18.01 dB 2:51 12-Umi
––––––––––––––––––––––––––––––––––––––––

Number of tracks: 12
Official DR value: DR11

Samplerate: 96000 Hz
Channels: 2
Bits per sample: 24
Bitrate: 2558 kbps
Codec: FLAC
================================================================================


101 Strings Orchestra - The Soul of Spain, France, Italy, USA, Greece, Poland, Gypsies, Japan (2019) Official Digital Download

101 Strings Orchestra - The Rivieras of Spain, France, Italy – On a Mediterranean Cruise (Remastered from the Original Alshire Tapes) (1970/2019)
FLAC (tracks) 24-bit/96 kHz | Time - 40:03 minutes | 781 MB
Studio Master, Official Digital Download | Artwork: Front cover


Tracklist CD6:

01. La mer
02. Flamenco Fantasy
03. Estrellita
04. A Night on the Riviera
05. Monaco
06. Sunday in Genoa
07. Medley: Santa Lucia / Funiculi Funicula / Sorrento

foobar2000 1.3.7 / Dynamic Range Meter 1.1.1
log date: 2019-12-02 04:42:11

––––––––––––––––––––––––––––––––––––––––
Analyzed: 101 Strings Orchestra / The Rivieras of Spain France Italy: On a Mediterranean Cruise (Remastered from the Original Alshire Tapes)
––––––––––––––––––––––––––––––––––––––––

DR Peak RMS Duration Track
––––––––––––––––––––––––––––––––––––––––
DR10 -0.93 dB -15.05 dB 5:05 01-La mer
DR12 -0.30 dB -16.15 dB 7:59 02-Flamenco Fantasy
DR10 -0.30 dB -15.88 dB 3:11 03-Estrellita
DR10 -0.50 dB -13.56 dB 5:00 04-A Night on the Riviera
DR10 -0.50 dB -14.39 dB 4:16 05-Monaco
DR11 -0.50 dB -15.48 dB 6:41 06-Sunday in Genoa
DR10 -1.00 dB -16.07 dB 7:55 07-Medley: Santa Lucia / Funiculi Funicula / Sorrento
––––––––––––––––––––––––––––––––––––––––

Number of tracks: 7
Official DR value: DR10

Samplerate: 96000 Hz
Channels: 2
Bits per sample: 24
Bitrate: 2764 kbps
Codec: FLAC
================================================================================


All thanks go to the original releaser