Tags
Language
Tags

ABBA - ABBA (1975) [LP,DSD128]

Posted By: Discograf_man
ABBA - ABBA (1975) [LP,DSD128]

ABBA - ABBA (1975) [LP,DSD128]
Pop-rock | DSD128 (*.dsf, tracks), 1-bit/5.64 MHz
Run Time: 00:36:44 | 3.05 GB + 5% Recovery
Label: Polar | Release Year: 1975

ABBA is the third (second internationally) studio album by the Swedish pop group of the same name. It was originally released on 21 April 1975 through Polar Music and featured the hits "Mamma Mia" and "SOS".
"SOS" marked a huge turnaround in ABBA's fortunes, most notably in the UK and Ireland, where it returned the group to the Top 10 for the first time since "Waterloo". Reaching #6 and #4 respectively, "SOS" started a run of 18 consecutive Top 10 hits for ABBA in the UK and Ireland. "SOS" reached #1 in Australia, Belgium, France, West Germany (where it spent 7 weeks at the top), New Zealand and South Africa, and was a Top 3 hit in Austria, the Netherlands, Norway, Italy (where it became ABBA's most successful hit), Mexico, Rhodesia and Switzerland. The song also became ABBA's second Top 20 hit in the United States, peaking at #15 (due to the single charting in the U.S. before "I Do, I Do, I Do, I Do, I Do", whereas elsewhere "SOS" charted afterwards).
ABBA - ABBA (1975) [LP,DSD128]

Tracklist:

Side A:


A1 Mamma Mia
A2 Hey, Hey Helen
A3 Tropical Loveland
A4 SOS
A5 Man In The Middle
A6 Bang-A-Boomerang

Side B:

B1 I Do, I Do, I Do, I Do, I Do
B2 Rock Me
B3 Intermezzo No. 1
B4 I've Been Waiting For You
B5 So Long

ABBA - ABBA (1975) [LP,DSD128]


Credits:

Agnetha Fältskog - lead vocals
Anni-Frid Lyngstad – backing vocals
Björn Ulvaeus – guitar
Benny Andersson – keyboards, synthesizer

foobar2000 1.4 / Dynamic Range Meter 1.1.1
log date: 2019-10-05 22:56:26

––––––––––––––––––––––––––––––––––––––––
Analyzed: ABBA / ABBA
––––––––––––––––––––––––––––––––––––––––

DR Peak RMS Duration Track
––––––––––––––––––––––––––––––––––––––––
DR15 -3.08 dB -21.07 dB 3:35 ?-A1.Mamma Mia
DR14 -4.78 dB -21.29 dB 3:20 ?-A2.Hey, Hey Helen
DR16 -3.65 dB -23.28 dB 3:07 ?-A3.Tropical Loveland
DR14 -3.68 dB -20.89 dB 3:25 ?-A4.SOS
DR14 -3.75 dB -21.57 dB 3:04 ?-A5.Man In The Middle
DR12 -3.86 dB -19.50 dB 3:05 ?-A6.Bang-A-Boomerang
DR12 -4.65 dB -19.11 dB 3:19 ?-B1.I Do, I Do, I Do, I Do, I Do
DR14 -4.83 dB -21.28 dB 3:08 ?-B2.Rock Me
DR14 -4.36 dB -20.58 dB 3:51 ?-B3.Intermezzo No. 1
DR14 -4.45 dB -21.67 dB 3:43 ?-B4.I've Been Waiting For You
DR14 -3.05 dB -19.38 dB 3:07 ?-B5.So Long
––––––––––––––––––––––––––––––––––––––––

Number of tracks: 11
Official DR value: DR14

Samplerate: 5644800 Hz / PCM Samplerate: 88200 Hz
Channels: 2
Bits per sample: 1
Bitrate: 11290 kbps
Codec: DSD128
================================================================================

Thanks to the original releaser!