Abba - Voulez-Vous (1979) [LP, DSD128]

Posted By: Discograf_man
Abba - Voulez-Vous (1979) [LP, DSD128]

Abba - Voulez-Vous (1979) [LP, DSD128]
Pop Rock | DSD128 (*.dsf, tracks), 1-bit/5.64 MHz
Run Time: 00:41:57 | 3.50 GB + 5% Recovery
Label: Polar | Release Year: 1979

Voulez-Vous is the sixth studio album by the Swedish group ABBA, released in 1979. It features a number of hits such as "Chiquitita", "Does Your Mother Know" and "I Have a Dream" and showed the group embrace disco music, which was at its peak at the time. The album topped the charts in a number of countries and was one of the top five-selling albums in the UK for that year. It was the first ABBA album to be mainly recorded at Polar Studios in Stockholm, and the only ABBA album to include a studio recording made outside Sweden: the instrumental backing track for the title track was partly recorded at Criteria Studios in Miami.
Tracklist:

Side 1


A1 As Good As New
A2 Voulez-Vous
A3 I Have A Dream
A4 Angeleyes
A5 The King Has Lost His Crown

Side 2

B1 Does Your Mother Know
B2 If It Wasn't For The Nights
B3 Chiquitita
B4 Lovers (Live A Little Longer)
B5 Kisses Of Fire

Abba - Voulez-Vous (1979) [LP, DSD128]


Line-up / Musicians

Agnetha Fältskog – lead vocals (1, 8, 10, 13), co-lead vocals (2, 4, 7, 11, 12, 14) backing vocals
Anni-Frid Lyngstad – lead vocals (3, 5, 9, 14), co-lead vocals (2, 4, 7, 11, 12, 14), backing vocals
Björn Ulvaeus – banjo, guitar, lead vocals (6, 11), backing vocals
Benny Andersson – synthesizer, keyboards, co-lead vocals (11), backing vocals[14]

Additional musicians

Rolf Alex – drums
Ola Brunkert – drums
Lars Carlsson – horn
Anders Eljas – horn
Joe Galdo – drums
Malando Gassama – percussion
Rutger Gunnarsson – bass
Paul Harris – piano
Janne Kling – wind
Nils Landgren – trombone
Ish Ledesma – guitar
Roger Palm – drums
Halldor Palsson – tenor saxophone
Arnold Paseiro – bass
Jan Risberg – oboe
Janne Schaffer – guitar, sitar
Johan Stengård – tenor saxophone
Åke Sundqvist – percussion
George Terry – guitar
Mike Watson – bass
Lasse Wellander – guitar
Kajtek Wojciechowski – tenor saxophone
Gunnar Mickols – violin
Anders Dahl – violin

foobar2000 1.4 / Dynamic Range Meter 1.1.1
log date: 2019-09-09 14:49:46

––––––––––––––––––––––––––––––––––––––––
Analyzed: Abba / Voulez-Vous 2014
––––––––––––––––––––––––––––––––––––––––

DR Peak RMS Duration Track
––––––––––––––––––––––––––––––––––––––––
DR14 -6.00 dB -23.01 dB 3:24 01-As Good As New
DR14 -4.64 dB -20.79 dB 5:12 02-Voulez-Vous
DR15 -6.60 dB -25.65 dB 4:46 03-I Have A Dream
DR14 -5.08 dB -21.70 dB 4:25 04-Angeleyes
DR14 -6.96 dB -24.05 dB 3:35 05-The King Has Lost His Crown
DR13 -5.03 dB -21.34 dB 3:15 06-Does Your Mother Know
DR14 -5.84 dB -22.39 dB 5:13 07-If It Wasn't For The Nights
DR13 -6.20 dB -23.62 dB 5:29 08-Chiquitita
DR15 -6.28 dB -23.11 dB 3:32 09-Lovers (Live A Little Longer)
DR13 -6.92 dB -24.35 dB 3:20 10-Kisses Of Fire
––––––––––––––––––––––––––––––––––––––––

Number of tracks: 10
Official DR value: DR14

Samplerate: 5644800 Hz / PCM Samplerate: 88200 Hz
Channels: 2
Bits per sample: 1
Bitrate: 11290 kbps
Codec: DSD128
================================================================================

Thanks to the original releaser!