Al Hirt - Greatest Trumpet Hits of All Time (1979/2015) [Official Digital Download 24/96]

Posted By: pyatak
Al Hirt - Greatest Trumpet Hits of All Time (1979/2015) [Official Digital Download 24/96]

Al Hirt - Greatest Trumpet Hits of All Time (1979/2015) [Official Digital Download 24/96]
FLAC (tracks) 24-bit/96 kHz | Front Cover | Time - 75:06 minutes | 1,51 GB
Jazz | Label: Good Time Records, Official Digital Download

Alois Maxwell "Al" Hirt (November 7, 1922 – April 27, 1999) was an American trumpeter and bandleader. He is best remembered for his million-selling recordings of "Java" and the accompanying album Honey in the Horn (1963), and for the theme music to The Green Hornet. His nicknames included "Jumbo" and "The Round Mound of Sound". Colin Escott, an author of musician biographies, wrote that RCA Victor Records, for which Hirt had recorded most of his best-selling recordings and for which he had spent much of his professional recording career, had dubbed him with another moniker: "The King." Hirt was inducted into The Louisiana Music Hall of Fame in November 2009.

TRACKLIST

01. Al Hirt - I Can't Get Started
02. Al Hirt - Memories of You / You Made Me Love You
03. Al Hirt - Stardust / The Man With a Horn
04. Al Hirt - Wonderland by Night / Oh My Pa-pa (O Mein Papa)
05. Al Hirt - Star Dreams
06. Al Hirt - Rhapsody in Blue
07. Al Hirt - Trumpeters Lullaby / Bugler's Holiday
08. Al Hirt - Hot Lips / Sugar Blues
09. Al Hirt - Oh Marie / Marie
10. Al Hirt - Gonna Fly Now (Rocky's Theme)
11. Al Hirt - Java
12. Al Hirt - Tuxedo Junction
13. Al Hirt - Feels So Good
14. Al Hirt - A Night in Tunisia
15. Al Hirt - Cherry Pink & Apple Blossom White
16. Al Hirt - The Toy Trumpet
17. Al Hirt - Tenderly
18. Al Hirt - When it's Sleepy Time Down South / Hello Dolly
19. Al Hirt - And the Angels Sing
20. Al Hirt - Boy Meets Horn
21. Al Hirt - Ciribiribin
22. Al Hirt - Rise
23. Al Hirt - After You've Gone

foobar2000 1.6.2 / Dynamic Range Meter 1.1.1
log date: 2021-05-11 15:54:22

––––––––––––––––––––––––––––––––––––––––
Analyzed: Al Hirt / Greatest Trumpet Hits of All Time
––––––––––––––––––––––––––––––––––––––––

DR Peak RMS Duration Track
––––––––––––––––––––––––––––––––––––––––
DR14 -0.10 dB -18.29 dB 3:41 01-I Can't Get Started
DR14 -1.05 dB -19.45 dB 3:41 02-Memories of You / You Made Me Love You
DR14 -1.05 dB -19.86 dB 4:36 03-Stardust / The Man With a Horn
DR12 -1.03 dB -17.30 dB 3:41 04-Wonderland by Night / Oh My Pa-pa (O Mein Papa)
DR12 -1.05 dB -16.00 dB 2:55 05-Star Dreams
DR13 -1.00 dB -18.85 dB 3:15 06-Rhapsody in Blue
DR14 -1.00 dB -18.99 dB 3:56 07-Trumpeters Lullaby / Bugler's Holiday
DR13 -1.00 dB -18.71 dB 2:52 08-Hot Lips / Sugar Blues
DR12 -1.00 dB -16.00 dB 2:57 09-Oh Marie / Marie
DR13 -1.00 dB -16.20 dB 3:27 10-Gonna Fly Now (Rocky's Theme)
DR13 -1.00 dB -17.19 dB 1:58 11-Java
DR13 -1.00 dB -19.60 dB 2:40 12-Tuxedo Junction
DR12 -1.00 dB -16.09 dB 3:02 13-Feels So Good
DR12 -1.00 dB -18.07 dB 3:40 14-A Night in Tunisia
DR12 -1.00 dB -17.32 dB 2:18 15-Cherry Pink & Apple Blossom White
DR14 -1.00 dB -20.18 dB 3:18 16-The Toy Trumpet
DR13 -1.00 dB -18.23 dB 3:23 17-Tenderly
DR14 -1.00 dB -18.89 dB 3:55 18-When it's Sleepy Time Down South / Hello Dolly
DR14 -1.00 dB -20.59 dB 3:01 19-And the Angels Sing
DR13 -1.00 dB -18.08 dB 3:01 20-Boy Meets Horn
DR12 -1.00 dB -16.40 dB 2:43 21-Ciribiribin
DR14 -1.00 dB -17.86 dB 3:49 22-Rise
DR14 -1.00 dB -18.20 dB 3:18 23-After You've Gone
––––––––––––––––––––––––––––––––––––––––

Number of tracks: 23
Official DR value: DR13

Samplerate: 96000 Hz
Channels: 2
Bits per sample: 24
Bitrate: 2900 kbps
Codec: FLAC
================================================================================



Thanks to the Original customer.