Alan Jackson - Where Have You Gone (2021) [Official Digital Download 24/96]

Posted By: pyatak
Alan Jackson - Where Have You Gone (2021) [Official Digital Download 24/96]

Alan Jackson - Where Have You Gone (2021) [Official Digital Download 24/96]
FLAC (tracks) 24-bit/96 kHz | Front Cover | Time - 82:59 minutes | 1,64 GB
Country | Label: Spinefarm Records, Official Digital Download

Alan Jackson will be releasing a brand new studio album on 14th May including 21 new tracks** This is the first country release in over 5 years. Alan Jackson is one of the best-selling music artists of all-time, having sold over 75 million records worldwide, with 44 million sold in the United States alone. He has had 66 songs appear on the Billboard Hot Country Singles & Tracks chart; of the 66 titles, and six featured singles, 38 have reached the top five and 35 have claimed the number one spot. Out of 15 titles to reach the Billboard Top Country Albums chart, nine have been certified multi-platinum. He is the recipient of two Grammy Awards, 16 CMA Awards, 17 ACM Awards and nominee of multiple other awards. He is a member of the Grand Ole Opry, and was inducted into the Georgia Music Hall of Fame in 2001. He was inducted into the Country Music Hall of Fame in 2017 by Loretta Lynn and into the Nashville Songwriters Hall of Fame in 2018.

TRACKLIST

1. Alan Jackson - Where Have You Gone
2. Alan Jackson - Wishful Drinkin'
3. Alan Jackson - I Can Be That Something
4. Alan Jackson - Where The Cottonwood Grows
5. Alan Jackson - Way Down In My Whiskey
6. Alan Jackson - Things That Matter
7. Alan Jackson - Livin' On Empty
8. Alan Jackson - You'll Always Be My Baby (Written for Daughters' Weddings)
9. Alan Jackson - Where Her Heart Has Always Been (Written for Mama’s funeral with an old recording of her reading from the Bible)
10. Alan Jackson - The Boot
11. Alan Jackson - Back
12. Alan Jackson - Write It In Red
13. Alan Jackson - So Late So Soon
14. Alan Jackson - This Heart Of Mine
15. Alan Jackson - A Man Who Never Cries
16. Alan Jackson - Chain
17. Alan Jackson - I Was Tequila
18. Alan Jackson - I Do (Written for Daughters' Weddings)
19. Alan Jackson - That's The Way Love Goes (A Tribute To Merle Haggard)
20. Alan Jackson - Beer:10
21. Alan Jackson - The Older I Get

foobar2000 1.6.2 / Dynamic Range Meter 1.1.1
log date: 2021-05-13 23:53:46

––––––––––––––––––––––––––––––––––––––––
Analyzed: Alan Jackson / Where Have You Gone
––––––––––––––––––––––––––––––––––––––––

DR Peak RMS Duration Track
––––––––––––––––––––––––––––––––––––––––
DR13 -0.21 dB -16.93 dB 4:47 01-Where Have You Gone
DR12 -0.21 dB -15.89 dB 3:50 02-Wishful Drinkin'
DR14 -0.21 dB -16.55 dB 4:40 03-I Can Be That Something
DR13 -0.21 dB -16.17 dB 3:02 04-Where The Cottonwood Grows
DR12 -0.21 dB -15.87 dB 3:57 05-Way Down In My Whiskey
DR12 -0.21 dB -15.42 dB 3:42 06-Things That Matter
DR13 -0.21 dB -15.34 dB 4:32 07-Livin' On Empty
DR14 -0.21 dB -18.04 dB 3:46 08-You'll Always Be My Baby (Written for Daughters' Weddings)
DR13 -0.21 dB -16.86 dB 3:27 09-Where Her Heart Has Always Been (Written for Mama’s funeral with an old recording of her reading from the Bible)
DR14 -0.21 dB -17.91 dB 3:24 10-The Boot
DR12 -0.21 dB -15.74 dB 5:14 11-Back
DR14 -0.21 dB -16.29 dB 4:15 12-Write It In Red
DR12 -0.21 dB -15.10 dB 3:47 13-So Late So Soon
DR12 -0.21 dB -15.41 dB 3:19 14-This Heart Of Mine
DR13 -0.21 dB -16.17 dB 4:55 15-A Man Who Never Cries
DR12 -0.21 dB -16.27 dB 3:07 16-Chain
DR14 -0.21 dB -17.37 dB 5:10 17-I Was Tequila
DR12 -2.78 dB -17.31 dB 2:51 18-I Do (Written for Daughters' Weddings)
DR11 -0.21 dB -14.22 dB 3:05 19-That's The Way Love Goes (A Tribute To Merle Haggard)
DR13 -0.21 dB -15.12 dB 4:19 20-Beer:10
DR11 -1.17 dB -15.46 dB 3:50 21-The Older I Get
––––––––––––––––––––––––––––––––––––––––

Number of tracks: 21
Official DR value: DR13

Samplerate: 96000 Hz
Channels: 2
Bits per sample: 24
Bitrate: 2764 kbps
Codec: FLAC
================================================================================



Thanks to the Original customer.