Tags
Language
Tags

Amy Grant - Home For Christmas (1992) [Official Digital Download 24/96]

Posted By: El Misha
Amy Grant - Home For Christmas (1992) [Official Digital Download 24/96]

Amy Grant - Home For Christmas (1992)
FLAC (tracks) 24-bit/96 kHz | Time - 42:38 | 924 MB
Studio Master, Official Digital Download | Artwork: Front cover

Amy Grant provides one of the most aesthetically pleasing voices of the Christmas season, and like her other holiday recordings, Home for Christmas provides a collection of songs that can be enjoyed year after year. This time out, Grant relies primarily on Christian standards, all of which are delivered with honesty and beautiful arrangements.



Tracklist:

01-Have Yourself A Merry Little Christmas (Remastered 2007)
02-It's The Most Wonderful Time Of The Year (Remastered 2007)
03-Joy To The World/For Unto Us A Child Is Born (Medley)
04-Breath Of Heaven (Mary's Song) (Remastered 2007)
05-O Come All Ye Faithful
06-Grown-Up Christmas List (Remastered 2007)
07-Rockin' Around The Christmas Tree (Remastered 2007)
08-Winter Wonderland
09-I'll Be Home For Christmas
10-The Night Before Christmas (Remastered 2007)
11-Emmanuel, God With Us
12-Jesu, Joy Of Man's Desiring

foobar2000 1.4 / Dynamic Range Meter 1.1.1
log date: 2021-12-21 08:31:20

––––––––––––––––––––––––––––––––––––––––
Analyzed: Amy Grant / Home For Christmas
––––––––––––––––––––––––––––––––––––––––

DR Peak RMS Duration Track
––––––––––––––––––––––––––––––––––––––––
DR10 -1.80 dB -16.04 dB 2:38 01-Have Yourself A Merry Little Christmas (Remastered 2007)
DR7 -1.80 dB -12.50 dB 2:27 02-It's The Most Wonderful Time Of The Year (Remastered 2007)
DR8 -1.80 dB -13.24 dB 2:33 03-Joy To The World/For Unto Us A Child Is Born (Medley)
DR9 -1.80 dB -14.44 dB 5:31 04-Breath Of Heaven (Mary's Song) (Remastered 2007)
DR12 -1.88 dB -18.04 dB 3:01 05-O Come All Ye Faithful
DR8 -1.80 dB -13.83 dB 5:02 06-Grown-Up Christmas List (Remastered 2007)
DR8 -1.80 dB -12.82 dB 2:08 07-Rockin' Around The Christmas Tree (Remastered 2007)
DR10 -1.80 dB -13.75 dB 2:18 08-Winter Wonderland
DR9 -1.80 dB -14.35 dB 3:28 09-I'll Be Home For Christmas
DR8 -1.80 dB -12.63 dB 3:53 10-The Night Before Christmas (Remastered 2007)
DR9 -1.80 dB -15.00 dB 4:57 11-Emmanuel, God With Us
DR9 -1.80 dB -14.74 dB 4:49 12-Jesu, Joy Of Man's Desiring
––––––––––––––––––––––––––––––––––––––––

Number of tracks: 12
Official DR value: DR9

Samplerate: 96000 Hz
Channels: 2
Bits per sample: 24
Bitrate: 2989 kbps
Codec: FLAC
================================================================================



Thanks to the Original customer!