Tags
Language
Tags
May 2024
Su Mo Tu We Th Fr Sa
28 29 30 1 2 3 4
5 6 7 8 9 10 11
12 13 14 15 16 17 18
19 20 21 22 23 24 25
26 27 28 29 30 31 1

André Rieu, Johann Strauss Orchestra - Love Is All Around (2024) (Hi-Res)

Posted By: Rtax
André Rieu, Johann Strauss Orchestra - Love Is All Around (2024) (Hi-Res)

André Rieu, Johann Strauss Orchestra - Love Is All Around (2024) (Hi-Res)
FLAC (tracks) 24bit-48kHz - 1.5 GB
2:12:07 | Classical | Label: André Rieu Productions BV

Together with his joyful Johann Strauss Orchestra and numerous international soloists, André Rieu celebrated a cheerful and emotional party, which ended night after night with a grand firework display. The numerous highlights on this DVD include world hits such as Ballade pour Adeline, Can’t Help Falling in Love, Volare, Bolero, An der schönen blauen Donau and Highland Cathedral with around 300 bagpipers. The emotional highlight of the concert was the French ESC title “Voilà” sung by the extraordinary 15-year-old singer Emma Kok, who moved the audience to tears and went viral on the internet.

Tracklist
1. Entry Of The Gladiators, ARV (Live) (5:41)
2. Blaze Away (Live) (4:07)
3. Nel blu dipinto di blu (Live) (4:42)
4. Funiculi Funicula (Live) (3:45)
5. Exodus Song (Live) (5:11)
6. Ballade pour Adeline (Live) (4:51)
7. Voilà (Live) (5:33)
8. Scotland The Brave (Live) (4:33)
9. Highland Cathedral (Live) (4:12)
10. Muss i denn (Live) (2:35)
11. Czardasfürstin (Live) (4:59)
12. Im weißen Rössl (Live) (3:03)
13. I Belong To Me (Live) (4:46)
14. Oh When The Saints, ARV_11 (Live) (4:31)
15. I Will Follow Him (Live) (6:35)
16. Amen, ARV_11 (Live) (4:13)
17. Oh Happy Day (Live) (5:16)
18. Caro Nome (Live) (7:10)
19. The Beautiful Blue Danube, ARV_15 (Live) (9:57)
20. Boléro (Live) (7:30)
21. Radetzkymarsch, ARV_15 (Live) (2:49)
22. Strauss & Co. (Live) (3:15)
23. Libiamo, ARV_10 (Live) (4:21)
24. Tutti Frutti (Live) (2:15)
25. Can't Help Falling In Love (Live) (3:09)
26. It's Raining Men (Live) (4:12)
27. Amazing Grace, ARV_15 (Live) (3:05)
28. Adieu, mein kleiner Gardeoffizier (Live) (3:50)
29. Marina (Live) (2:10)
foobar2000 2.0 / Dynamic Range Meter 1.1.1
log date: 2024-04-11 07:52:32

––––––––––––––––––––––––––––––––––––––––
Analyzed: André Rieu / Love Is All Around
––––––––––––––––––––––––––––––––––––––––

DR Peak RMS Duration Track
––––––––––––––––––––––––––––––––––––––––
DR14 -0.50 dB -18.07 dB 5:41 01-Entry Of The Gladiators, ARV (Live)
DR13 -0.50 dB -16.89 dB 4:07 02-Blaze Away (Live)
DR12 -0.50 dB -16.51 dB 4:42 03-Nel blu dipinto di blu (Live)
DR12 -1.28 dB -16.99 dB 3:45 04-Funiculi Funicula (Live)
DR12 -0.50 dB -16.82 dB 5:11 05-Exodus Song (Live)
DR12 -0.50 dB -18.94 dB 4:51 06-Ballade pour Adeline (Live)
DR11 -0.50 dB -15.78 dB 5:33 07-Voilà (Live)
DR15 -0.50 dB -18.59 dB 4:33 08-Scotland The Brave (Live)
DR9 -0.50 dB -14.00 dB 4:12 09-Highland Cathedral (Live)
DR15 -0.50 dB -18.51 dB 2:35 10-Muss i denn (Live)
DR12 -0.50 dB -16.29 dB 4:59 11-Czardasfürstin (Live)
DR11 -0.50 dB -18.53 dB 3:03 12-Im weißen Rössl (Live)
DR8 -0.50 dB -13.91 dB 4:46 13-I Belong To Me (Live)
DR10 -0.50 dB -13.80 dB 4:31 14-Oh When The Saints, ARV_11 (Live)
DR9 -0.50 dB -13.66 dB 6:35 15-I Will Follow Him (Live)
DR9 -0.50 dB -12.41 dB 4:13 16-Amen, ARV_11 (Live)
DR9 -0.50 dB -12.26 dB 5:16 17-Oh Happy Day (Live)
DR11 -2.71 dB -18.50 dB 7:10 18-Caro Nome (Live)
DR13 -0.50 dB -17.10 dB 9:57 19-The Beautiful Blue Danube, ARV_15 (Live)
DR11 -0.50 dB -15.93 dB 7:30 20-Boléro (Live)
DR14 -0.50 dB -16.96 dB 2:49 21-Radetzkymarsch, ARV_15 (Live)
DR12 -0.50 dB -15.29 dB 3:15 22-Strauss & Co. (Live)
DR13 -0.50 dB -15.74 dB 4:21 23-Libiamo, ARV_10 (Live)
DR11 -0.50 dB -13.40 dB 2:15 24-Tutti Frutti (Live)
DR12 -0.50 dB -14.19 dB 3:09 25-Can't Help Falling In Love (Live)
DR9 -0.50 dB -11.27 dB 4:12 26-It's Raining Men (Live)
DR10 -0.50 dB -14.04 dB 3:05 27-Amazing Grace, ARV_15 (Live)
DR12 -0.50 dB -15.14 dB 3:50 28-Adieu, mein kleiner Gardeoffizier (Live)
DR9 -0.50 dB -11.13 dB 2:10 29-Marina (Live)
––––––––––––––––––––––––––––––––––––––––

Number of tracks: 29
Official DR value: DR11

Samplerate: 48000 Hz
Channels: 2
Bits per sample: 24
Bitrate: 1912 kbps
Codec: FLAC
================================================================================