Angelo Kelly & Family - Coming Home (2020) [Official Digital Download]

Posted By: pyatak
Angelo Kelly & Family - Coming Home (2020) [Official Digital Download]

Angelo Kelly & Family - Coming Home (2020) [Official Digital Download]
FLAC (tracks) 24-bit/48 kHz | Front Cover | Time - 48:40 minutes | 619 MB
Pop, Folk | Label: Electrola, Official Digital Download

He has just caused a storm of enthusiasm with the famous Kelly Family, now he seamlessly joins his own family in this Mega success: on May 22, the brand new studio album of Angelo Kelly & family will be released with "Coming home", on which the Irish-American exceptional musician invites all Fans to an atmospheric journey to his idyllic home!

After three intense and enormously successful years with The Kelly Family, Angelo is now back at home with his own family. A circumstance that the musician now celebrates in a very special way: almost exactly two years after the release of the number 2 album "Irish Heart", the brand new studio album by Angelo Kelly & family will be released on May 22 with "Coming home". "Coming home" is a real family Album, which shows the Band from a clearly matured and grown side. As with the previous Album, Angelo's children and his wife Kira have once again made a strong contribution with their compositions and today impressively demonstrate the enormous Talent in this family. "The new Album actually radiates something very domestic," explains Angelo Kelly. "We've always been a family band that doesn't always look at the computer to see which Sample would fit the Song well. Here they just make music, like in the good old days. Handmade! The focus here is clearly on our songs and their stories.“

Together with renowned studio musicians, Angelo Kelly & family take the audience on a short break in the idyllic expanses of the Green Island. Authentic Ireland Feeling for the local four walls. "The last three years with my siblings have been an incredibly beautiful time. I will always like to look back on what we have accomplished together,“ Angelo continued. "On the other hand, my wife and our five Kids had to do without me for a very long time; it wasn't always easy. But now I am completely at home again. Today, we can focus on our music. After the last concert with the Kelly family I hugged my wife and children in the dressing room and said: I'm coming home, kids."We can't wait to see what surprises Angelo Kelly & Family have planned for 2020 after this fantastic return!

TRACKLIST

1. Angelo Kelly & Family - Wild Rover
2. Angelo Kelly & Family - On The Road
3. Angelo Kelly & Family - Stay With Me
4. Angelo Kelly & Family - Country Roads
5. Angelo Kelly & Family - Don't Know
6. Angelo Kelly & Family - Mairi's Wedding
7. Angelo Kelly & Family - A Life That's Good
8. Angelo Kelly & Family - Sweetest Rose
9. Angelo Kelly & Family - Home On The Range
10. Angelo Kelly & Family - Whiskey In The Jar
11. Angelo Kelly & Family - Regret
12. Angelo Kelly & Family - Foggy Dew
13. Angelo Kelly & Family - The Irish Girl / The Widow's Daughter
14. Angelo Kelly & Family - What A Wonderful World

foobar2000 1.3.16 / Dynamic Range Meter 1.1.1
log date: 2020-05-23 11:40:08

––––––––––––––––––––––––––––––––––––––––
Analyzed: Angelo Kelly & Family / Coming Home
––––––––––––––––––––––––––––––––––––––––

DR Peak RMS Duration Track
––––––––––––––––––––––––––––––––––––––––
DR10 -0.10 dB -12.30 dB 3:48 01-Wild Rover
DR10 -0.10 dB -11.60 dB 3:38 02-On The Road
DR11 -0.10 dB -13.58 dB 4:02 03-Stay With Me
DR11 -0.10 dB -12.94 dB 3:25 04-Country Roads
DR10 -0.10 dB -12.62 dB 4:01 05-Don't Know
DR11 -0.10 dB -11.98 dB 3:13 06-Mairi's Wedding
DR12 -0.10 dB -13.63 dB 3:51 07-A Life That's Good
DR11 -0.10 dB -14.63 dB 4:47 08-Sweetest Rose
DR12 -0.10 dB -14.71 dB 3:30 09-Home On The Range
DR9 -0.10 dB -10.77 dB 3:28 10-Whiskey In The Jar
DR12 -0.10 dB -14.29 dB 2:46 11-Regret
DR10 -1.79 dB -15.45 dB 3:17 12-Foggy Dew
DR11 -0.10 dB -13.82 dB 2:03 13-The Irish Girl / The Widow's Daughter
DR12 -0.34 dB -14.48 dB 3:11 14-What A Wonderful World
––––––––––––––––––––––––––––––––––––––––

Number of tracks: 14
Official DR value: DR11

Samplerate: 48000 Hz
Channels: 2
Bits per sample: 24
Bitrate: 1703 kbps
Codec: FLAC
================================================================================



Thanks to the Original customer.