Animal Collective - Ballet Slippers (2019) [Official Digital Download]

Posted By: Pisulik
Animal Collective - Ballet Slippers (2019) [Official Digital Download]

Animal Collective - Ballet Slippers (2019)
FLAC (tracks) 24-bit/48 kHz | Time - 95:21 minutes | 1,14 GB
Studio Master, Official Digital Download | Artwork: Front cover

Ballet Slippers is a live release marking the 10 year anniversary of Animal Collective’s studio album Merriweather Post Pavilion. The release is culled from several shows from that album’s North American tour and sequenced to reflect a full concert experience, complete with song transitions and interludes.

Tracklist:

1. In The Flowers (Live June 2, 2009 Boulder, CO) (06:28)
2. Who Could Win A Rabbit (Live June 9, 2009 Ft. Lauderdale, FL) (06:03)
3. Summertime Clothes (Live June 9, 2009 Ft. Lauderdale, FL) (06:18)
4. Bleed (Live May 30, 2009 Las Vegas, NV) (04:52)
5. Guys Eyes (Live June 9, 2009 Ft. Lauderdale, FL) (08:24)
6. My Girls (Live May 30, 2009 Las Vegas, NV) (06:38)
7. Banshee Beat (Live June 2, 2009 Boulder, CO) (10:13)
8. Lion In A Coma (Live June 9, 2009 Ft. Lauderdale, FL) (05:10)
9. No More Runnin’ (Live May 29, 2009 Los Angeles, CA) (04:49)
10. Lablakely Dress/Fireworks (Live June 9, 2009 Ft. Lauderdale, FL) (20:12)
11. Daily Routine (Live May 30, 2009 Las Vegas, NV) (08:59)
12. Brothersport (Live June 2, 2009 Boulder, CO) (07:15)

foobar2000 1.3.7 / Dynamic Range Meter 1.1.1
log date: 2019-11-22 12:21:18

––––––––––––––––––––––––––––––––––––––––
Analyzed: Animal Collective / Ballet Slippers
––––––––––––––––––––––––––––––––––––––––

DR Peak RMS Duration Track
––––––––––––––––––––––––––––––––––––––––
DR9 -0.95 dB -12.82 dB 6:29 01-In The Flowers (Live June 2, 2009 Boulder, CO)
DR9 -0.96 dB -12.55 dB 6:03 02-Who Could Win A Rabbit (Live June 9, 2009 Ft. Lauderdale, FL)
DR9 -0.96 dB -12.32 dB 6:18 03-Summertime Clothes (Live June 9, 2009 Ft. Lauderdale, FL)
DR8 -0.96 dB -11.75 dB 4:52 04-Bleed (Live May 30, 2009 Las Vegas, NV)
DR8 -0.88 dB -11.15 dB 8:25 05-Guys Eyes (Live June 9, 2009 Ft. Lauderdale, FL)
DR9 -0.96 dB -12.47 dB 6:39 06-My Girls (Live May 30, 2009 Las Vegas, NV)
DR9 -0.96 dB -12.15 dB 10:13 07-Banshee Beat (Live June 2, 2009 Boulder, CO)
DR7 -0.93 dB -10.11 dB 5:10 08-Lion In A Coma (Live June 9, 2009 Ft. Lauderdale, FL)
DR10 -0.96 dB -14.27 dB 4:49 09-No More Runnin’ (Live May 29, 2009 Los Angeles, CA)
DR8 -0.70 dB -11.62 dB 20:13 10-Lablakely Dress/Fireworks (Live June 9, 2009 Ft. Lauderdale, FL)
DR10 -0.70 dB -13.33 dB 9:00 11-Daily Routine (Live May 30, 2009 Las Vegas, NV)
DR8 -0.96 dB -12.11 dB 7:15 12-Brothersport (Live June 2, 2009 Boulder, CO)
––––––––––––––––––––––––––––––––––––––––

Number of tracks: 12
Official DR value: DR9

Samplerate: 48000 Hz
Channels: 2
Bits per sample: 24
Bitrate: 1729 kbps
Codec: FLAC
================================================================================


All thanks go to the original releaser