Anna Netrebko - Verismo (2016)

Posted By: SERTiL
Anna Netrebko - Verismo (2016)

Anna Netrebko - Verismo
Classical, Opera | FLAC (tracks) 24-bit/96 kHz | 68:43 min | 1.30 GB | Digital booklet
Label: Deutsche Grammophon | Tracks: 16 | 2016

With VERISMO Anna Netrebko presents her long-awaited new studio album the first in three years displaying her remarkable vocal maturity and reaffirming her status as one of the leading sopranos of her generation.

For Anna Netrebko herself, it was the obvious next step; for her public it promises to be a revelation. The challenging verismo repertoire offers a fascinating portrait of Netrebkos voice in its full maturity. Having reached the latest peak in an already sensational career, the soprano continues her vocal and artistic development in logical fashion, illuminating the stylistic and psychological complexities of verismo with her own special intensity and powers of expression.

Set to be one of the most important and anticipated classical releases of 2016.

VERISMO features Netrebko in the greatest, most irresistible hits of the Grand Italian repertoire of the fading 19th Century, with arias by Puccini, Leoncavallo, Ponchielli, Boito, Giordano and Catalani.

Showcasing brand new interpretations of some of the greatest and most popular opera arias of all time.

A winning classical music team Anna Netrebko and Sir Antonio Pappano now joined on record for the very first time by her husband and tenor Yusif Eyvazov.

Anna Netrebko has reached the heart of the rich, mature dramatic repertoire that allows her to showcase the sheer beauty, endless, wide range of colors and emotion in combination with her distinct and beloved timbre that sets her apart from any other artist, past or present. In many ways this album is a self-discovery for this unique artist, and is destined to reach Annas widest fan-base.

Verismo at the turn of the last century introduced - real life - experience to opera and left behind the romantic approach of Belcanto. Netrebkos recent performances of Verdis Macbeth and Il Trovatore but also her role debut of Manon Lescaut in March 2014 in Rome, have shown that Netrebko is able to combine the most beautiful sound production with the harsh, sometimes brutal and scary reality of those heroines she is awaking to life for us.

01. Francesco Cilea: Adriana Lecouvreur - Act 1: 'Ecco: respiro appena…'
02. Umberto Giordano: Andrea Chénier - Act 3: 'La mamma morta'
03. Puccini: Madama Butterfly - Act 2: 'Un bel dì vedremo'
04. Puccini: Turandot - Act 1: 'Signore, ascolta!'
05. Ruggiero Leoncavallo: Pagliacci - Act 1: 'Qual fiamma avea nel guardo!'
06. Alfredo Catalani: La Wally - Act 1: 'Ebben? Ne andrò lontana'
07. Arrigo Boïto: Mefistofele - Act 3: 'L'altra notte in fondo al mare'
08. Amilcare Ponchielli: La Gioconda - Act 4: 'Suicidio! In questi fieri momenti'
09. Puccini: Tosca - Act 2: 'Vissi d'arte, vissi d'amore'
10. Puccini: Turandot - Act 2: 'In questa reggia'
Puccini: Manon Lescaut
11. Act 2: 'In quelle trine morbide'
12. Act 4: 'Tutta su me ti posa'
13. Act 4: 'Manon, senti, amor mio': 'Sei tu che piangi?'
14. Act 4: 'Sei tu che piangi?'
15. Act 4: 'Sola perduta, abbandonatae'
16. Act 4: 'Fra le tue braccia amore'

Anna Netrebko (soprano)
Orchestra dell'Accademia Nazionale di Santa Cecilia
Antonio Pappano (conductor)

foobar2000 1.3.9 / Замер динамического диапазона (DR) 1.1.1
Дата отчёта: 2016-10-25 15:21:04
Анализ: Anna Netrebko, Orchestra dell'Accademia Nazionale di Santa Cecilia, Antonio Pappano / Verismo
DR Пики RMS Продолжительность трека
DR11 -1.50 дБ -18.89 дБ 3:43 01-Adriana Lecouvreur / Act 1: "Ecco: respiro appena … Io son l'umile ancella"
DR12 -0.19 дБ -18.66 дБ 4:59 02-Andrea Chénier / Act 3: "La mamma morta"
DR11 -1.61 дБ -18.24 дБ 4:32 03-Madama Butterfly / Act 2: "Un bel dì vedremo"
DR13 -2.79 дБ -22.52 дБ 2:39 04-Turandot / Act 1: "Signore, ascolta!"
DR11 -2.22 дБ -19.06 дБ 4:32 05-Pagliacci / Act 1: "Qual fiamma avea nel guardo! … Stridono lassù"
DR13 -0.06 дБ -18.84 дБ 3:55 06-La Wally / Act 1: "Ebben? Ne andrò lontana"
DR14 -0.14 дБ -20.52 дБ 6:53 07-Mefistofele / Act 3: "L'altra notte in fondo al mare"
DR12 -0.88 дБ -19.60 дБ 4:35 08-La Gioconda / Act 4: "Suicidio! In questi fieri momenti"
DR11 -0.39 дБ -19.32 дБ 3:27 09-Tosca / Act 2: "Vissi d'arte, vissi d'amore"
DR11 -0.12 дБ -16.52 дБ 6:12 10-Turandot / Act 2: "In questa reggia"
DR11 -0.48 дБ -18.17 дБ 2:48 11-Manon Lescaut / Act 2: "In quelle trine morbide"
DR14 -0.22 дБ -20.25 дБ 2:56 12-Manon Lescaut / Act 4: "Tutta su me ti posa"
DR11 -3.79 дБ -19.53 дБ 1:59 13-Manon Lescaut / Act 4: "Manon, senti, amor mio"
DR12 -0.25 дБ -18.00 дБ 4:38 14-Manon Lescaut / Act 4: "Sei tu che piangi?"
DR11 -0.16 дБ -17.59 дБ 4:25 15-Manon Lescaut / Act 4: "Sola perduta, abbandonata"
DR13 -0.16 дБ -19.49 дБ 6:42 16-Manon Lescaut / Act 4: "Fra le tue braccia amore"
Количество треков: 16
Реальные значения DR: DR12
Частота: 96000 Гц
Каналов: 2
Разрядность: 24
Битрейт: 2646 кбит/с
Кодек: FLAC

Thanks to the Original customer.