Please register here if you want to download anything!

If domain in your address bar is different from the list below
PLEASE LEAVE THAT SITE IMMEDIATELY
❗IT'S A DANGEROUS FAKE❗



Spicy Magazines for Men! ;-)

Aretha Franklin - 30 Greatest Hits (1985/2014) [Official Digital Download 24/96]

Posted By: Pisulik
Aretha Franklin - 30 Greatest Hits (1985/2014) [Official Digital Download 24/96]

Aretha Franklin - 30 Greatest Hits (1985/2014)
FLAC (tracks) 24-bit/96 kHz | Time - 99:14 minutes | 1,97 GB
Studio Master, Official Digital Download | Artwork: Front cover

30 Greatest Hits zeroes in on Aretha Franklin's prime recording period for Atlantic, from her breakout in 1967 with 'I Never Loved a Man (The Way I Love You)' through the end of 1974, during which the Queen of Soul truly reigned over the charts she averaged over one pop hit every two months. This two-disc set delivers all of her classics ('Respect,' 'Do Right Woman, Do Right Man,' '(You Make Me Feel Like) A Natural Woman,' 'Chain of Fools,' 'Think,' 'Spanish Harlem,' 'Rock Steady'), plus much more excellent material for those who won't recognize much more than the songs (and there are quite a few) that have entered the cultural consciousness ('I Say a Little Prayer,' 'The Weight,' 'Spirit in the Dark,' 'Day Dreaming'). It's a great foundation to any collection that has yet to be equaled by a pair of Rhino sets, the two-volume Very Best of Aretha Franklin from 1994 and Aretha's Best from 2001.

Tracklist:

01. I Never Loved A Man [The Way I Love You]
02. Respect
03. Do Right Woman, Do Right Man
04. Dr. Feelgood [Love Is Serious Business]
05. Save Me
06. Baby I Love You
07. [You Make Me Feel Like] A Natural Woman
08. Chain Of Fools
09. Since You've Been Gone (Sweet Sweet Baby)
10. Ain't No Way
11. Think
12. I Say A Little Prayer
13. The House That Jack Built
14. See Saw
15. The Weight
16. Share Your Love With Me
17. Eleanor Rigby
18. Call Me
19. Spirit in the Dark
20. Don't Play That Song
21. You're All I Need To Get By
22. Bridge Over Troubled Water
23. Spanish Harlem
24. Rock Steady
25. Oh Me Oh My (I'm A Fool For You Baby)
26. Day Dreaming
27. Wholy Holy
28. Angel
29. Until You Come Back To Me [That's What I Am Going To Do]
30. I'm In Love

Personnel:

Aretha Franklin, vocals, piano, background vocals
Cissy Houston, vocals
Ellie Greenwich, vocals
Chips Moman, guitar
Cornell Dupree, guitar
Jimmy Johnson, guitar
David Spinozza, guitar
Duane Allman, guitar
Eddie Hinton, guitar
Hugh McCracken, guitar
Jerry Weaver, guitar
Charlie Freeman, guitar
Don Arnone, acoustic guitar
Joe Farrell, flute, tenor saxophone
Hubert Laws, flute
King Curtis, brass
The Memphis Horns
Spooner Oldham, electric piano
Kenneth Lupper, organ
Richard Tee, organ
Donny Hathaway, keyboards
Jim Dickinson, keyboards
Mike Utley, keyboards
Barry Beckett, keyboards
Billy Preston, keyboards
Kenneth Bichel, synthesizer
Al Jackson, Jr., drums
Ray Lucas, drums
Rick Marotta, drums
Roger Hawkins, drums
Bernard 'Pretty' Purdie, drums
Sammy Creason, drums
Pancho Morales, congas
Ralph MacDonald, percussion
Dr. John, Robert 'Pops' Popwell, percussion
Erma Franklin, background vocals
The Sweethearts of Soul, background vocals
Carolyn Franklin, background vocals
The Southern California Community Choir, background vocals

foobar2000 1.3.7 / Dynamic Range Meter 1.1.1
log date: 2019-08-13 05:23:03

––––––––––––––––––––––––––––––––––––––––
Analyzed: Andrew Love / 30 Greatest Hits (1)
Aretha Franklin / 30 Greatest Hits (2-30)
––––––––––––––––––––––––––––––––––––––––

DR Peak RMS Duration Track
––––––––––––––––––––––––––––––––––––––––
DR12 -1.69 dB -17.76 dB 3:36 12-I Say a Little Prayer
DR15 -0.06 dB -20.50 dB 2:44 01-I Never Loved a Man (The Way I Love You)
DR12 -0.89 dB -15.44 dB 2:28 02-Respect
DR13 -3.71 dB -20.82 dB 3:16 03-Do Right Woman, Do Right Man
DR13 -0.80 dB -18.35 dB 3:21 04-Dr. Feelgood (Love Is Serious Business)
DR13 0.00 dB -15.53 dB 2:20 05-Save Me
DR11 -0.42 dB -14.67 dB 2:40 06-Baby, I Love You
DR11 -2.42 dB -17.73 dB 2:43 07-(You Make Me Feel Like) A Natural Woman
DR12 -2.49 dB -16.68 dB 2:47 08-Chain of Fools
DR11 -2.01 dB -14.94 dB 2:25 09-(Sweet Sweet Baby) Since You've Been Gone
DR12 -2.54 dB -19.54 dB 4:13 10-Ain't No Way
DR10 -0.47 dB -13.94 dB 2:18 11-Think
DR8 -2.15 dB -12.47 dB 2:21 13-The House That Jack Built
DR11 -0.81 dB -13.77 dB 2:45 14-See Saw
DR13 -2.82 dB -18.28 dB 2:59 15-The Weight
DR12 -1.04 dB -16.45 dB 3:22 16-Share Your Love with Me
DR12 -0.09 dB -15.29 dB 2:38 17-Eleanor Rigby
DR12 -1.80 dB -16.79 dB 3:57 18-Call Me
DR12 -0.93 dB -16.83 dB 4:03 19-Spirit in the Dark
DR11 -1.93 dB -15.96 dB 3:01 20-Don't Play That Song
DR13 -2.12 dB -17.75 dB 3:38 21-You're All I Need to Get By
DR13 -3.50 dB -19.82 dB 5:33 22-Bridge over Troubled Water
DR14 -1.08 dB -17.85 dB 3:33 23-Spanish Harlem
DR14 -0.44 dB -17.20 dB 3:15 24-Rock Steady
DR13 -1.61 dB -18.16 dB 3:43 25-Oh Me Oh My (I'm a Fool for You Baby)
DR13 -0.06 dB -17.93 dB 4:01 26-Day Dreaming
DR11 -2.50 dB -16.61 dB 2:52 27-Wholy Holy
DR10 -4.16 dB -17.62 dB 3:35 28-Angel
DR11 -0.47 dB -15.11 dB 3:28 29-Until You Come Back to Me (That's What I'm Gonna Do)
DR12 -3.63 dB -19.19 dB 2:52 30-I'm in Love
––––––––––––––––––––––––––––––––––––––––

Number of tracks: 30
Official DR value: DR12

Samplerate: 96000 Hz
Channels: 2
Bits per sample: 24
Bitrate: 2886 kbps
Codec: FLAC
================================================================================


All thanks go to the original releaser