Tags
Language
Tags

Art Blakey & The Jazz Messengers - New Sounds! (1991/2021) [Official Digital Download 24/96]

Posted By: pyatak
Art Blakey & The Jazz Messengers - New Sounds! (1991/2021) [Official Digital Download 24/96]

Art Blakey & The Jazz Messengers - New Sounds! (1991/2021) [Official Digital Download 24/96]
FLAC (tracks) 24-bit/96 kHz | Front Cover | Time - 35:14 minutes | 646 MB
Jaazz | Label: Blue Note, Official Digital Download

New Sounds was originally a 10" LP compiling previously released 78 rpm records on the Blue Note label. A CD reissue with the same name and cover appeared in 1991, but while using many of the same personnel, had only two tracks in common with the original LP. It instead compiled a distinct James Moody 10" LP (James Moody and his Modernists, BLP 5006) with the Art Blakey tracks and included several tracks previously unreleased on LP or any format. Conversely, the tracks omitted from the CD, which were on the Moody LP, have not been reissued on CD.[

TRACKLIST

1. Art Blakey - The Fuller Bop Man (Remastered)
2. Art Blakey - Workshop (Remastered)
3. Art Blakey - Oh, Henry! (Remastered)
4. Art Blakey - Moodamorphosis (Remastered)
5. Art Blakey - Moody's All Frantic (Remastered)
6. Art Blakey - Tropicana (Remastered)
7. Art Blakey - Cu-ba (Remastered)
8. Art Blakey - Tin Tin Deo (Remastered)
9. Art Blakey - The Thin Man (Remastered)
10. Art Blakey - Bop Alley (Remastered)
11. Art Blakey - Groove Street (Remastered)
12. Art Blakey - Musa's Vision (Remastered)

foobar2000 1.6.2 / Dynamic Range Meter 1.1.1
log date: 2021-07-31 08:20:30

––––––––––––––––––––––––––––––––––––––––
Analyzed: Art Blakey / New Sounds!
––––––––––––––––––––––––––––––––––––––––

DR Peak RMS Duration Track
––––––––––––––––––––––––––––––––––––––––
DR11 -1.14 dB -14.14 dB 2:59 01-The Fuller Bop Man (Remastered)
DR10 -0.96 dB -13.37 dB 3:19 02-Workshop (Remastered)
DR11 0.00 dB -13.49 dB 2:32 03-Oh, Henry! (Remastered)
DR11 -1.45 dB -14.67 dB 3:03 04-Moodamorphosis (Remastered)
DR11 -3.67 dB -15.93 dB 2:36 05-Moody's All Frantic (Remastered)
DR11 -1.07 dB -14.86 dB 3:04 06-Tropicana (Remastered)
DR11 -4.86 dB -16.86 dB 2:36 07-Cu-ba (Remastered)
DR13 -1.43 dB -16.24 dB 2:48 08-Tin Tin Deo (Remastered)
DR13 -0.49 dB -14.89 dB 3:01 09-The Thin Man (Remastered)
DR12 -0.86 dB -14.25 dB 3:12 10-Bop Alley (Remastered)
DR11 -0.07 dB -13.78 dB 3:02 11-Groove Street (Remastered)
DR11 -1.70 dB -14.97 dB 3:07 12-Musa's Vision (Remastered)
––––––––––––––––––––––––––––––––––––––––

Number of tracks: 12
Official DR value: DR11

Samplerate: 96000 Hz
Channels: 2
Bits per sample: 24
Bitrate: 2113 kbps
Codec: FLAC
================================================================================



Thanks to the Original customer.