VA - Audiophile Analog Collection Vol. 2 (2020) [Official Digital Download 24/192]

Posted By: SERTiL
VA - Audiophile Analog Collection Vol. 2 (2020) [Official Digital Download 24/192]

VA - Audiophile Analog Collection Vol. 2 (2020)
FLAC (tracks) 24-bit/192 kHz | Time - 48:51 minutes | 1.73 GB
Studio Master, Official Digital Download | Artwork: Digital Booklet

From the worlds of jazz, blues, percussion ensembles, world music and classical music, this is a special compilation of analog audiophile recordings at their best, with emphasis on great sound. "This album is stunning to say the least. A reference level stuff! Do not miss this release when it's up for grabs. It really shows what a high-end system is capable or lack of! Monoandstereo.com review Jan. 2020

Tracklist:
01. Lights of Barcelona (5:49)
02. Libertango (3:40)
03. Seven Last Words of Christ: Introduction (5:49)
04. The Sky Is Crying (3:20)
05. Route 66 (4:38)
06. Le Violette (1:42)
07. Échanges synaptiques interdits (2:24)
08. Musicus Percussion #3 (3:25)
09. Bell (1:26)
10. J.S. Bach Toccata and Fugue in D Minor, BWV 565 (10:10)
11. Pictures at an Exhibition, Excerpts (6:32)

foobar2000 1.3.7 / Dynamic Range Meter 1.1.1
log date: 2020-03-03 13:14:29

––––––––––––––––––––––––––––––––––––––––
Analyzed: Various - Audiophile Analog Collection / Audiophile Analog Collection Vol. 2
––––––––––––––––––––––––––––––––––––––––

DR Peak RMS Duration Track
––––––––––––––––––––––––––––––––––––––––
DR12 0.00 dB -15.43 dB 5:49 01-Lights of Barcelona
DR14 -3.12 dB -21.32 dB 3:40 02-Libertango
DR11 -3.77 dB -20.46 dB 5:49 03-Seven Last Words of Christ: Introduction
DR15 -1.35 dB -24.86 dB 3:20 04-The Sky Is Crying
DR13 0.00 dB -16.46 dB 4:38 05-Route 66
DR15 -1.22 dB -21.07 dB 1:42 06-Le Violette
DR14 -0.50 dB -19.97 dB 2:24 07-Échanges synaptiques interdits
DR18 0.00 dB -21.26 dB 3:25 08-Musicus Percussion #3
DR13 -1.16 dB -17.41 dB 1:26 09-Bell
DR12 -2.79 dB -19.54 dB 10:10 10-J.S. Bach Toccata and Fugue in D Minor, BWV 565
DR13 0.00 dB -16.62 dB 6:32 11-Pictures at an Exhibition, Excerpts
––––––––––––––––––––––––––––––––––––––––

Number of tracks: 11
Official DR value: DR14

Samplerate: 192000 Hz
Channels: 2
Bits per sample: 24
Bitrate: 5096 kbps
Codec: FLAC
================================================================================


Thanks to the Original customer.